FLAC [Hi-Res] Travis Scott - Rodeo (2015) [Deluxe Edition] [24bit/44.1kHz]

Discussion in 'Albums (lossless)' started by UHD4K, Jul 10, 2018.

  1. UHD4K

    UHD4K Soriel

    Joined:
    Oct 30, 2016
    Messages:
    146
    Likes Received:
    58
    [​IMG]

    Dynamic Range Meter:

    Code:
    foobar2000 1.3.13 / Dynamic Range Meter 1.1.1
    log date: 2017-09-05 00:36:35
    
    --------------------------------------------------------------------------------
    Analyzed: Travis Scott / Rodeo (Deluxe Edition)
    --------------------------------------------------------------------------------
    
    DR         Peak         RMS     Duration Track
    --------------------------------------------------------------------------------
    DR4       -0.16 dB    -5.84 dB      3:52 01-Pornography
    DR4       -0.24 dB    -6.44 dB      5:51 02-Oh My Dis Side (feat. Quavo)
    DR3       -0.19 dB    -5.91 dB      7:42 03-3500 (feat. Future & 2 Chainz)
    DR3       -0.16 dB    -8.21 dB      3:56 04-Wasted (feat. Juicy J)
    DR4       -0.14 dB    -6.14 dB      5:39 05-90210 (feat. Kacy Hill)
    DR3       -0.12 dB    -5.57 dB      5:07 06-Pray 4 Love (feat. The Weeknd)
    DR3       -0.16 dB    -4.17 dB      5:22 07-Nightcrawler (feat. Swae Lee & Chief Keef)
    DR3       -0.13 dB    -5.47 dB      2:46 08-Piss On Your Grave (feat. Kanye West)
    DR3       -0.16 dB    -5.04 dB      4:23 09-Antidote
    DR5       -0.19 dB    -7.82 dB      4:03 10-Impossible
    DR5       -0.16 dB    -6.88 dB      5:50 11-Maria I'm Drunk (feat. Justin Bieber & Young Thug)
    DR4        0.00 dB    -5.31 dB      3:29 12-Flying High (feat. Toro y Moi)
    DR3       -0.13 dB    -4.30 dB      3:56 13-I Can Tell
    DR4       -0.19 dB    -5.73 dB      3:39 14-Apple Pie
    DR5       -0.11 dB    -6.42 dB      6:58 15-Ok Alright (feat. ScHoolboy Q)
    DR3       -0.19 dB    -4.37 dB      2:56 16-Never Catch Me
    --------------------------------------------------------------------------------
    
    Number of tracks:  16
    Official DR value: DR4
    
    Samplerate:        44100 Hz
    Channels:          2
    Bits per sample:   24
    Bitrate:           1573 kbps
    Codec:             FLAC
    ================================================================================
    
    
    Spectrogram
    [​IMG]

    Download Link
    MEGA
    Hidden Content:
    You must either reply or click 'Like' to see the hidden information contained here.
     
    Michalis11 likes this.
  2. Loading...


  3. unfit_earth

    unfit_earth Member

    Joined:
    Nov 7, 2016
    Messages:
    45
    Likes Received:
    1
  4. Trung

    Trung Member

    Joined:
    Apr 5, 2017
    Messages:
    211
    Likes Received:
    2
  5. Michalis11

    Michalis11 Member

    Joined:
    Apr 1, 2018
    Messages:
    31
    Likes Received:
    0
  6. Pierre94

    Pierre94 Member

    Joined:
    May 28, 2018
    Messages:
    91
    Likes Received:
    0
    A big thanks for @UHD4K !!
     
  7. oekaki

    oekaki Well-Known Member

    Joined:
    Sep 10, 2016
    Messages:
    1,367
    Likes Received:
    28