FLAC [Hi-Res] Travis Scott - Birds In The Trap Sing McKnight (2016) [24bit/44.1kHz]

Discussion in 'Albums (lossless)' started by UHD4K, Jul 10, 2018.

  1. UHD4K

    UHD4K Soriel

    Joined:
    Oct 30, 2016
    Messages:
    180
    Likes Received:
    127
    [​IMG]
    Dynamic Range Meter:
    Code:
    foobar2000 1.3.13 / Dynamic Range Meter 1.1.1
    log date: 2017-09-05 00:36:20
    
    --------------------------------------------------------------------------------
    Analyzed: Travis Scott / Birds In The Trap Sing McKnight
    --------------------------------------------------------------------------------
    
    DR         Peak         RMS     Duration Track
    --------------------------------------------------------------------------------
    DR4       -0.10 dB    -5.53 dB      3:21 01-The Ends
    DR4       -0.10 dB    -6.30 dB      4:33 02-Way Back
    DR3       -0.10 dB    -4.02 dB      3:46 03-Coordinate
    DR4       -0.20 dB    -5.47 dB      4:46 04-Through The Late Night
    DR4       -0.20 dB    -7.23 dB      3:34 05-Beibs In The Trap
    DR4       -0.10 dB    -7.93 dB      3:12 06-Sdp Interlude
    DR4       -0.10 dB    -6.49 dB      3:42 07-Sweet Sweet
    DR4       -0.10 dB    -5.16 dB      2:56 08-Outside
    DR4       -0.10 dB    -6.17 dB      4:04 09-Goosebumps
    DR4       -0.20 dB    -5.89 dB      5:14 10-First Take
    DR4       -0.10 dB    -5.90 dB      4:12 11-Pick Up The Phone
    DR4       -0.20 dB    -5.63 dB      3:20 12-Lose
    DR3       -0.18 dB    -4.70 dB      3:27 13-Guidance
    DR5       -0.29 dB    -8.03 dB      3:37 14-Wonderful
    --------------------------------------------------------------------------------
    
    Number of tracks:  14
    Official DR value: DR4
    
    Samplerate:        44100 Hz
    Channels:          2
    Bits per sample:   24
    Bitrate:           1629 kbps
    Codec:             FLAC
    ================================================================================
    
    

    Spectrogram:
    [​IMG]

    Download Link
    MEGA
    Hidden Content:
    You must either reply or click 'Like' to see the hidden information contained here.
     
  2. Loading...


  3. Trung

    Trung Member

    Joined:
    Apr 5, 2017
    Messages:
    244
    Likes Received:
    3
    Thanks
     
  4. Michalis11

    Michalis11 Member

    Joined:
    Apr 1, 2018
    Messages:
    103
    Likes Received:
    2
  5. Pierre94

    Pierre94 Member

    Joined:
    May 28, 2018
    Messages:
    115
    Likes Received:
    0
    Un grand merci à toi UHD4K !! Reactif, top !
     
  6. oekaki

    oekaki Well-Known Member

    Joined:
    Sep 10, 2016
    Messages:
    1,511
    Likes Received:
    28
    thank you!
     
  7. Michalis11

    Michalis11 Member

    Joined:
    Apr 1, 2018
    Messages:
    103
    Likes Received:
    2
    You Actually made my day bro
     
  8. YoniXtan

    YoniXtan Member

    Joined:
    Mar 24, 2017
    Messages:
    188
    Likes Received:
    3
    thanks
     
  9. YoniXtan

    YoniXtan Member

    Joined:
    Mar 24, 2017
    Messages:
    188
    Likes Received:
    3
    thanks
     
  10. HoratioPaperstacks

    HoratioPaperstacks Member

    Joined:
    Oct 27, 2016
    Messages:
    170
    Likes Received:
    5
    a true hero. thank you!
     
  11. TYC

    TYC Member

    Joined:
    Jun 16, 2017
    Messages:
    38
    Likes Received:
    0
    thxxx
    xxx
     
  12. swaggasoridiculous

    swaggasoridiculous New Member

    Joined:
    Nov 29, 2016
    Messages:
    25
    Likes Received:
    0
    Thanks so much beloved
     
  13. kevinkat

    kevinkat New Member

    Joined:
    Oct 5, 2016
    Messages:
    17
    Likes Received:
    0
    tfgcggvgv
     
  14. ChrisRyan

    ChrisRyan Member

    Joined:
    Aug 22, 2018
    Messages:
    31
    Likes Received:
    0