WEB-RiP Harry Styles - Behind The Album (Apple Music)

Discussion in 'Documentaries' started by durrss, May 15, 2017.

  1. durrss

    durrss Well-Known Member

    Joined:
    Sep 21, 2014
    Messages:
    215
    Likes Received:
    609
    [​IMG]

    Apple Music Presents: Behind the Album, a new film from production company Fulwell 73, chronicles Harry’s musical journey while creating his much anticipated debut solo album. The film features exclusive interviews and behind the scenes footage shot in Jamaica, Los Angeles and London during the making of the album and is complemented by Harry and his band performing songs from it for the first time at the world famous Abbey Road Studios in London.

    General
    Format : MPEG-4
    Format profile : Base Media / Version 2
    Codec ID : mp42 (mp42/isom)
    File size : 1.62 GiB
    Duration : 49 min 25 s
    Overall bit rate mode : Variable
    Overall bit rate : 4 705 kb/s
    Performer/Sorted by : Harry Styles
    ContentType : Music Video
    Recorded date : UTC 2017-05-19 07:00:00
    Encoded date : UTC 2017-05-15 12:48:29
    Tagged date : UTC 2017-05-15 12:58:15
    Copyright : ℗ (C) 2017 Erskine Records Limited, under exclusive license to Columbia Records, a Division of Sony Music Entertainment
    Cover : Yes
    Rating : None
    Title/Sort : Harry Styles: Behind the Album
    AppleStoreCountry : United States
    AppleStoreCatalogID : 1234039985
    AlbumTitleID : 471260289
    GenreID : 1614
    ContentRating : ||0|

    Video
    ID : 2
    Format : AVC
    Format/Info : Advanced Video Codec
    Format profile : High@L4
    Format settings, CABAC : Yes
    Format settings, ReFrames : 2 frames
    Codec ID : avc1
    Codec ID/Info : Advanced Video Coding
    Duration : 49 min 25 s
    Duration_LastFrame : -7 ms
    Bit rate mode : Variable
    Bit rate : 4 580 kb/s
    Maximum bit rate : 768 kb/s
    Width : 1 916 pixels
    Height : 800 pixels
    Display aspect ratio : 2.40:1
    Frame rate mode : Constant
    Frame rate : 23.976 (23976/1000) FPS
    Original frame rate : 25.000 FPS
    Color space : YUV
    Chroma subsampling : 4:2:0
    Bit depth : 8 bits
    Scan type : Progressive
    Bits/(Pixel*Frame) : 0.125
    Stream size : 1.58 GiB (97%)
    Language : English
    Encoded date : UTC 2017-05-15 12:50:18
    Tagged date : UTC 2017-05-15 12:58:14

    Audio
    ID : 1
    Format : AAC
    Format/Info : Advanced Audio Codec
    Format profile : LC
    Codec ID : 40
    Duration : 49 min 25 s
    Duration_LastFrame : -13 ms
    Bit rate mode : Variable
    Bit rate : 122 kb/s
    Maximum bit rate : 208 kb/s
    Channel(s) : 2 channels
    Channel positions : Front: L R
    Sampling rate : 48.0 kHz
    Frame rate : 46.875 FPS (1024 spf)
    Compression mode : Lossy
    Stream size : 43.2 MiB (3%)
    Language : English
    Default : Yes
    Alternate group : 1
    Encoded date : UTC 2017-05-15 12:48:30
    Tagged date : UTC 2017-05-15 12:50:17

    Text
    ID : 3-CC1
    Format : EIA-608
    Muxing mode : Final Cut
    Codec ID : c608
    Duration : 48 min 47 s
    Bit rate mode : Constant
    Stream size : 0.00 Byte (0%)
    Language : English
    Default : No
    Forced : No
    Alternate group : 2
    Encoded date : UTC 2017-05-15 12:58:14
    Tagged date : UTC 2017-05-15 12:58:15

    Hidden Content:
    You must either reply or click 'Like' to see the hidden information contained here.
     
    bync, pelitrocas, rasputin and 49 others like this.
  2. cinimodyeslah123

    cinimodyeslah123 Member

    Joined:
    Apr 17, 2017
    Messages:
    87
    Likes Received:
    6
  3. DEADLYCYNS

    DEADLYCYNS Member

    Joined:
    Feb 2, 2017
    Messages:
    430
    Likes Received:
    19
  4. P1956

    P1956 Active Member

    Joined:
    Aug 18, 2014
    Messages:
    540
    Likes Received:
    60
    thanks a lot
     
  5. usefuldo

    usefuldo Active Member

    Joined:
    Dec 19, 2013
    Messages:
    524
    Likes Received:
    37
    thanks!
     
  6. mkb1520

    mkb1520 New Member

    Joined:
    Mar 19, 2017
    Messages:
    8
    Likes Received:
    0
    thank you!
     
  7. cabeyograndeaf

    cabeyograndeaf Member

    Joined:
    Dec 15, 2016
    Messages:
    88
    Likes Received:
    5
  8. cabeyograndeaf

    cabeyograndeaf Member

    Joined:
    Dec 15, 2016
    Messages:
    88
    Likes Received:
    5
    tyyyyyyyyyyy
     
  9. andersonxjunior

    andersonxjunior Anderson

    Joined:
    Feb 26, 2016
    Messages:
    340
    Likes Received:
    135
    THANK YOU!!!!!!!!!!!!!!!!!!!!
     
  10. moonga101

    moonga101 New Member

    Joined:
    May 16, 2017
    Messages:
    1
    Likes Received:
    0
    Yay! Thank you!
     
  11. zar

    zar Member

    Joined:
    Feb 26, 2015
    Messages:
    205
    Likes Received:
    18
    thanks
     
  12. Saint

    Saint WHY HELLO WORLD?

    Joined:
    Sep 22, 2014
    Messages:
    1,192
    Likes Received:
    130
    Th
    Thanks
     
  13. marcelodc_

    marcelodc_ Member

    Joined:
    Oct 23, 2013
    Messages:
    192
    Likes Received:
    3
    thanksss
     
  14. johnguedes

    johnguedes Member

    Joined:
    Aug 29, 2016
    Messages:
    212
    Likes Received:
    23
    thankkks
     
  15. johnnosolo

    johnnosolo Member

    Joined:
    Dec 18, 2015
    Messages:
    660
    Likes Received:
    17
  16. kaleb

    kaleb Active Member

    Joined:
    Dec 7, 2016
    Messages:
    240
    Likes Received:
    45
    thanks
     
  17. glauciaboquetebom

    glauciaboquetebom Member

    Joined:
    Jan 10, 2016
    Messages:
    115
    Likes Received:
    6
  18. woman!

    woman! Member

    Joined:
    Apr 18, 2017
    Messages:
    49
    Likes Received:
    3
    thanks. is it possible someone could get 1080?
     
  19. SmartBeens

    SmartBeens Active Member

    Joined:
    Oct 5, 2014
    Messages:
    865
    Likes Received:
    68
    Thanks. I'll second this request ::
     
  20. mvlmoraes

    mvlmoraes Well-Known Member Donor

    Joined:
    Nov 22, 2013
    Messages:
    3,086
    Likes Received:
    412
    thanks