MOVIE Hannah Montana - The Movie (2009) [1080p BluRay x264 - HD1080] [7.94 GB]

Discussion in 'Cinema Center' started by vhugodd, Jun 27, 2020.

  1. vhugodd

    vhugodd Active Member

    Joined:
    Sep 11, 2019
    Messages:
    210
    Likes Received:
    36
    [​IMG]

    Attending a request by Medicine :blush:

    MediaInfo:
    Code:
    General
    Unique ID                      : 176374884713177576842740078385481619798 (0x84B0913368CFDD688513F3E7C87B9956)
    Complete name                  : \Hannah.Montana.The.Movie.2009.1080p.BluRay.x264-HD1080\hd1080-hmtm.mkv
    Format                         : Matroska
    Format version                 : Version 2
    File size                      : 7.94 GiB
    Duration                       : 1h 42mn
    Overall bit rate               : 11.1 Mbps
    Encoded date                   : UTC 2009-08-02 09:47:06
    Writing application            : mkvmerge v2.9.7 ('Tenderness') built on Jul  1 2009 18:43:35
    Writing library                : libebml v0.7.7 + libmatroska v0.8.1
    
    Video
    ID                             : 1
    Format                         : AVC
    Format/Info                    : Advanced Video Codec
    Format profile                 : High@L4.1
    Format settings, CABAC         : Yes
    Format settings, ReFrames      : 4 frames
    Codec ID                       : V_MPEG4/ISO/AVC
    Duration                       : 1h 42mn
    Bit rate                       : 9 600 Kbps
    Width                          : 1 920 pixels
    Height                         : 1 040 pixels
    Display aspect ratio           : 1.85:1
    Frame rate mode                : Constant
    Frame rate                     : 23.976 fps
    Color space                    : YUV
    Chroma subsampling             : 4:2:0
    Bit depth                      : 8 bits
    Scan type                      : Progressive
    Bits/(Pixel*Frame)             : 0.201
    Stream size                    : 6.71 GiB (84%)
    Writing library                : x264 core 67 r1173M f6d3166
    Encoding settings              : cabac=1 / ref=4 / deblock=1:0:0 / analyse=0x3:0x133 / me=umh / subme=7 / psy_rd=1.0:0.0 / mixed_ref=1 / me_range=16 / chroma_me=1 / trellis=1 / 8x8dct=1 / cqm=0 / deadzone=21,11 / chroma_qp_offset=-2 / threads=12 / nr=0 / decimate=1 / mbaff=0 / bframes=3 / b_pyramid=1 / b_adapt=1 / b_bias=0 / direct=1 / wpredb=1 / keyint=250 / keyint_min=25 / scenecut=40 / rc=2pass / bitrate=9600 / ratetol=1.0 / qcomp=0.60 / qpmin=10 / qpmax=51 / qpstep=4 / cplxblur=20.0 / qblur=0.5 / ip_ratio=1.40 / pb_ratio=1.30 / aq=1:1.00
    Language                       : English
    Default                        : Yes
    Forced                         : No
    
    Audio
    ID                             : 2
    Format                         : DTS
    Format/Info                    : Digital Theater Systems
    Mode                           : 16
    Format settings, Endianness    : Big
    Codec ID                       : A_DTS
    Duration                       : 1h 42mn
    Bit rate mode                  : Constant
    Bit rate                       : 1 509 Kbps
    Channel(s)                     : 6 channels
    Channel positions              : Front: L C R, Side: L R, LFE
    Sampling rate                  : 48.0 KHz
    Bit depth                      : 16 bits
    Compression mode               : Lossy
    Stream size                    : 1.08 GiB (14%)
    Language                       : English
    Default                        : Yes
    Forced                         : No
    
    Text
    ID                             : 3
    Format                         : UTF-8
    Codec ID                       : S_TEXT/UTF8
    Codec ID/Info                  : UTF-8 Plain Text
    Language                       : English
    Default                        : Yes
    Forced                         : No
    
    Download:
    Hidden Content:
    You must reply before you can see the hidden data contained here.
     
    magmajlcr, medicine and eks22 like this.
  2. Loading...


  3. medicine

    medicine angels like you can't fly down hell with me

    Joined:
    Nov 20, 2017
    Messages:
    878
    Likes Received:
    1,025
    Thank you so much! :love:
     
    vhugodd likes this.
  4. AlexCyrus

    AlexCyrus Member

    Joined:
    Jun 23, 2019
    Messages:
    56
    Likes Received:
    8
    thank youu
     
    vhugodd likes this.
  5. Olaflyn

    Olaflyn Well-Known Member

    Joined:
    May 25, 2017
    Messages:
    1,067
    Likes Received:
    48
    Thanks a lot
     
    vhugodd likes this.
  6. bangerz

    bangerz Active Member

    Joined:
    May 27, 2017
    Messages:
    110
    Likes Received:
    52
    thanks!!!
     
    vhugodd likes this.
  7. cflynn98

    cflynn98 Member

    Joined:
    Oct 30, 2019
    Messages:
    33
    Likes Received:
    5
    thank you
     
    vhugodd likes this.
  8. kpopanimefan

    kpopanimefan Member

    Joined:
    Aug 20, 2019
    Messages:
    295
    Likes Received:
    24
    thanks
     
    vhugodd likes this.
  9. usa-grunnewel

    usa-grunnewel New Member

    Joined:
    May 21, 2020
    Messages:
    19
    Likes Received:
    1
    thank
     
    vhugodd likes this.
  10. magmajlcr

    magmajlcr Member

    Joined:
    Thursday
    Messages:
    44
    Likes Received:
    2
    Thanks
     
    vhugodd likes this.
  11. Luanreaal

    Luanreaal luanzinhu

    Joined:
    Sep 19, 2017
    Messages:
    418
    Likes Received:
    14