Haddaway - What Is Love (M3HD-1080i-DD5.1-AmazonBoy) [CC]

Discussion in 'M3 HD' started by RGF72K, Nov 22, 2013.

  1. RGF72K

    RGF72K ????? Staff Member Super Moderator

    Joined:
    Oct 1, 2013
    Messages:
    1,020
    Likes Received:
    14,613
    [​IMG]

    Code:
    General
    ID                                      : 1 (0x1)
    Complete name                            : Haddaway_-_What_Is_Love_(M3HD-1080i-AmazonBoy).ts
    Format                                  : MPEG-TS
    File size                                : 415 MiB
    Duration                                : 4mn 3s
    Overall bit rate mode                    : Variable
    Overall bit rate                        : 14.3 Mbps
    
    Video
    ID                                      : 769 (0x301)
    Menu ID                                  : 1 (0x1)
    Format                                  : MPEG Video
    Format version                          : Version 2
    Format profile                          : [email protected]
    Format settings, BVOP                    : Yes
    Format settings, Matrix                  : Custom
    Format settings, GOP                    : Variable
    Codec ID                                : 2
    Duration                                : 4mn 3s
    Bit rate mode                            : Variable
    Bit rate                                : 13.2 Mbps
    Maximum bit rate                        : 24.0 Mbps
    Width                                    : 1 920 pixels
    Height                                  : 1 080 pixels
    Display aspect ratio                    : 16:9
    Frame rate                              : 29.970 fps
    Color space                              : YUV
    Chroma subsampling                      : 4:2:0
    Bit depth                                : 8 bits
    Compression mode                        : Lossy
    Bits/(Pixel*Frame)                      : 0.213
    Time code of first frame                : 00:00:00;00
    Time code source                        : Group of pictures header
    Stream size                              : 383 MiB (92%)
    Writing library                          : (c) 1998-2012 Womble Multimedia, Inc. / MPEG Video Wizard DVD 5.0.1.100 (03/2011) / Sep 22 2012
    
    Audio
    ID                                      : 770 (0x302)
    Menu ID                                  : 1 (0x1)
    Format                                  : AC-3
    Format/Info                              : Audio Coding 3
    Mode extension                          : CM (complete main)
    Format settings, Endianness              : Big
    Codec ID                                : 129
    Duration                                : 4mn 3s
    Bit rate mode                            : Constant
    Bit rate                                : 384 Kbps
    Channel(s)                              : 6 channels
    Channel positions                        : Front: L C R, Side: L R, LFE
    Sampling rate                            : 48.0 KHz
    Bit depth                                : 16 bits
    Compression mode                        : Lossy
    Stream size                              : 11.1 MiB (3%)
    Language                                : English
    
    Text #1
    ID                                      : 769 (0x301)-CC1
    Menu ID                                  : 1 (0x1)
    Format                                  : EIA-608
    Muxing mode                              : A/53 / DTVCC Transport
    Muxing mode, more info                  : Muxed in Video #1
    Duration                                : 4mn 3s
    Bit rate mode                            : Constant
    Stream size                              : 0.00 Byte (0%)
    
    Text #2
    ID                                      : 769 (0x301)-1
    Menu ID                                  : 1 (0x1)
    Format                                  : EIA-708
    Muxing mode                              : A/53 / DTVCC Transport
    Muxing mode, more info                  : Muxed in Video #1
    Duration                                : 4mn 3s
    Bit rate mode                            : Constant
    Stream size                              : 0.00 Byte (0%)

    Download:
    Hidden Content:
    You must either reply or click 'Like' to see the hidden information contained here.

    Capper: AmazonBoy
     
    Last edited: May 20, 2014
  2. Loading...


  3. J_Pablo

    J_Pablo Active Member

    Joined:
    Nov 27, 2013
    Messages:
    468
    Likes Received:
    85
    Thanks !
     
  4. Emazing

    Emazing Member

    Joined:
    Nov 6, 2013
    Messages:
    48
    Likes Received:
    0
    this! thanks
     
  5. MARKBR

    MARKBR New Member

    Joined:
    Dec 30, 2013
    Messages:
    15
    Likes Received:
    0
    very thanks
     
  6. HDcollector

    HDcollector Member

    Joined:
    Dec 15, 2013
    Messages:
    405
    Likes Received:
    7
  7. deleriumdj

    deleriumdj Member

    Joined:
    Mar 20, 2014
    Messages:
    27
    Likes Received:
    0
  8. sandra

    sandra New Member

    Joined:
    Feb 25, 2014
    Messages:
    9
    Likes Received:
    1
    thanks
     
  9. airj23

    airj23 Member

    Joined:
    Apr 17, 2014
    Messages:
    107
    Likes Received:
    0
    Thanks
     
  10. chiplove69

    chiplove69 New Member

    Joined:
    Apr 24, 2014
    Messages:
    11
    Likes Received:
    0
    Thanks for your sharing!
     
  11. Exim

    Exim New Member

    Joined:
    Mar 10, 2014
    Messages:
    12
    Likes Received:
    0
    Thank You
     
  12. grepitu

    grepitu Member

    Joined:
    Feb 1, 2014
    Messages:
    44
    Likes Received:
    6
     
  13. dedewo_mailpick

    dedewo_mailpick New Member

    Joined:
    May 13, 2014
    Messages:
    5
    Likes Received:
    0
  14. yeyiba_toomail

    yeyiba_toomail New Member

    Joined:
    May 14, 2014
    Messages:
    1
    Likes Received:
    0
    re:(upload please
     
  15. kesh1000

    kesh1000 Member

    Joined:
    May 5, 2014
    Messages:
    75
    Likes Received:
    0
  16. wuwevo_colde

    wuwevo_colde New Member

    Joined:
    May 16, 2014
    Messages:
    1
    Likes Received:
    0
  17. jizic_solvem

    jizic_solvem New Member

    Joined:
    May 17, 2014
    Messages:
    1
    Likes Received:
    0
    Thank You
     
  18. RGF72K

    RGF72K ????? Staff Member Super Moderator

    Joined:
    Oct 1, 2013
    Messages:
    1,020
    Likes Received:
    14,613
    new link added
     
  19. xaro

    xaro Member

    Joined:
    Jun 7, 2014
    Messages:
    183
    Likes Received:
    3
    Thanks
     
  20. alexandra

    alexandra Member

    Joined:
    May 14, 2014
    Messages:
    46
    Likes Received:
    0
  21. Pra

    Pra Member

    Joined:
    Jun 19, 2014
    Messages:
    34
    Likes Received:
    4