SERIES H2O : Just Add Water - Season 3 [1080p AMZN WEB-DL DDP2.0-x264-NTb] [66GB]

Discussion in 'Cinema Center' started by clublandtiger4, Jun 12, 2019.

  1. clublandtiger4

    clublandtiger4 The Pirate Princess

    Joined:
    Jun 8, 2019
    Messages:
    264
    Likes Received:
    780
    [​IMG]
    [​IMG]
    [​IMG]

    Code:
    Format                                   : Matroska
    Format version                           : Version 4 / Version 2
    File size                                : 2.45 GiB
    Duration                                 : 24mn 2s
    Overall bit rate mode                    : Variable
    Overall bit rate                         : 14.6 Mbps
    Encoded date                             : UTC 2018-06-17 10:21:39
    Writing application                      : mkvmerge v8.8.0 ('Wind at my back') 64bit
    Writing library                          : libebml v1.3.3 + libmatroska v1.4.4
    
    Video
    ID                                       : 1
    Format                                   : AVC
    Format/Info                              : Advanced Video Codec
    Format profile                           : High@L4
    Format settings, CABAC                   : Yes
    Format settings, ReFrames                : 4 frames
    Codec ID                                 : V_MPEG4/ISO/AVC
    Duration                                 : 24mn 2s
    Bit rate mode                            : Variable
    Bit rate                                 : 14.3 Mbps
    Maximum bit rate                         : 15.0 Mbps
    Width                                    : 1 920 pixels
    Height                                   : 1 080 pixels
    Display aspect ratio                     : 16:9
    Frame rate mode                          : Constant
    Frame rate                               : 25.000 fps
    Color space                              : YUV
    Chroma subsampling                       : 4:2:0
    Bit depth                                : 8 bits
    Scan type                                : Progressive
    Bits/(Pixel*Frame)                       : 0.277
    Stream size                              : 2.41 GiB (98%)
    Writing library                          : x264 core 148 r2623 d5b2374
    Encoding settings                        : cabac=1 / ref=4 / deblock=1:-1:-1 / analyse=0x3:0x133 / me=umh / subme=9 / psy=1 / psy_rd=1.00:0.15 / mixed_ref=1 / me_range=24 / chroma_me=1 / trellis=2 / 8x8dct=1 / cqm=0 / deadzone=21,11 / fast_pskip=1 / chroma_qp_offset=-3 / threads=34 / lookahead_threads=5 / sliced_threads=0 / nr=150 / decimate=1 / interlaced=0 / bluray_compat=0 / constrained_intra=0 / bframes=8 / b_pyramid=2 / b_adapt=2 / b_bias=0 / direct=3 / weightb=1 / open_gop=0 / weightp=2 / keyint=125 / keyint_min=63 / scenecut=0 / intra_refresh=0 / rc_lookahead=125 / rc=crf / mbtree=1 / crf=18.0 / qcomp=0.60 / qpmin=0 / qpmax=69 / qpstep=4 / vbv_maxrate=15000 / vbv_bufsize=31250 / crf_max=0.0 / nal_hrd=vbr / filler=0 / ip_ratio=1.40 / aq=3:1.00
    Default                                  : Yes
    Forced                                   : No
    Color range                              : Limited
    Color primaries                          : BT.709
    Transfer characteristics                 : BT.709
    Matrix coefficients                      : BT.709
    
    Audio
    ID                                       : 2
    Format                                   : E-AC-3
    Format/Info                              : Audio Coding 3
    Format settings, Endianness              : Big
    Codec ID                                 : A_EAC3
    Duration                                 : 24mn 2s
    Bit rate mode                            : Constant
    Bit rate                                 : 224 Kbps
    Channel(s)                               : 2 channels
    Channel positions                        : Front: L R
    Sampling rate                            : 48.0 KHz
    Frame rate                               : 187.500 fps (256 spf)
    Compression mode                         : Lossy
    Stream size                              : 38.5 MiB (2%)
    Language                                 : English
    Default                                  : Yes
    Forced                                   : No


    Download Server - Google Drive

    Hidden Content:
    You must reply before you can see the hidden data contained here.


     
    Flooper55 likes this.
  2. Loading...


  3. MileyCyrus

    MileyCyrus SHE IS COMING!☺

    Joined:
    Jan 3, 2019
    Messages:
    32
    Likes Received:
    27
    thanks! can you also add season 1 and season 2?
     
  4. barzaka

    barzaka New Member

    Joined:
    Jun 7, 2019
    Messages:
    22
    Likes Received:
    0
    Thanks
     
  5. the_flash

    the_flash Active Member

    Joined:
    Feb 5, 2017
    Messages:
    279
    Likes Received:
    29
  6. AndresMas

    AndresMas Member

    Joined:
    Oct 25, 2015
    Messages:
    428
    Likes Received:
    9
    thanks!!
     
  7. Morf

    Morf Member

    Joined:
    Apr 11, 2018
    Messages:
    196
    Likes Received:
    8
    Hidden Content:
    You must reply before you can see the hidden data contained here.
     
  8. mariellisaa

    mariellisaa Member

    Joined:
    Jan 17, 2016
    Messages:
    196
    Likes Received:
    16
  9. moonlightvgun

    moonlightvgun Active Member

    Joined:
    May 30, 2019
    Messages:
    115
    Likes Received:
    69
    thanks
     
  10. t4n7iR

    t4n7iR Member

    Joined:
    Feb 18, 2018
    Messages:
    194
    Likes Received:
    0
    please add other seasons 1080p.
    Thanks
     
  11. JVictor

    JVictor Member

    Joined:
    Mar 20, 2017
    Messages:
    73
    Likes Received:
    5
    Thank you!!!
     
  12. poop4

    poop4 Member

    Joined:
    Jul 3, 2017
    Messages:
    46
    Likes Received:
    1
    thanks
     
  13. Jersman

    Jersman New Member

    Joined:
    Jul 13, 2019
    Messages:
    22
    Likes Received:
    0
    Thanks!!!
     
  14. TurnerMeow

    TurnerMeow New Member

    Joined:
    Jul 14, 2019
    Messages:
    4
    Likes Received:
    0
  15. MandaStarlight

    MandaStarlight Member

    Joined:
    Jun 18, 2019
    Messages:
    562
    Likes Received:
    21
  16. bxtelho

    bxtelho Active Member

    Joined:
    Jul 21, 2019
    Messages:
    122
    Likes Received:
    35
    thanks
     
  17. Flooper55

    Flooper55 New Member

    Joined:
    Jul 22, 2019
    Messages:
    3
    Likes Received:
    0
    Thank you!
     
  18. maxkeiser

    maxkeiser Well-Known Member Uploader

    Joined:
    Aug 24, 2016
    Messages:
    7,851
    Likes Received:
    18,895
    wahts taht
     
  19. moonlightvgun

    moonlightvgun Active Member

    Joined:
    May 30, 2019
    Messages:
    115
    Likes Received:
    69
    link doesn't work
     
  20. lalavava

    lalavava Member

    Joined:
    Mar 16, 2018
    Messages:
    46
    Likes Received:
    0
    thank you
     
  21. mar93

    mar93 Member

    Joined:
    Jul 28, 2019
    Messages:
    100
    Likes Received:
    6
    rthanks