SDTV Gwen Stefani - Rich Girl (San Remo 04.03.05)

Discussion in 'SD Live Performances' started by hanshermann, Mar 22, 2018.

  1. hanshermann

    hanshermann Well-Known Member Uploader

    Joined:
    Aug 24, 2016
    Messages:
    7,020
    Likes Received:
    11,694
    [​IMG]
    Gwen Stefani - Rich Girl (San Remo 04.03.05)

    General
    Complete name : Gwen Stefani - Rich Girl (San Remo 04.03.05).mpg
    Format : MPEG-PS
    File size : 176 MiB
    Duration : 3 min 9 s
    Overall bit rate mode : Variable
    Overall bit rate : 7 812 kb/s

    Video
    ID : 224 (0xE0)
    Format : MPEG Video
    Format version : Version 2
    Format profile : Main@Main
    Format settings, BVOP : Yes
    Format settings, Matrix : Custom
    Format settings, GOP : M=2, N=12
    Format settings, picture st : Frame
    Duration : 3 min 9 s
    Bit rate mode : Variable
    Bit rate : 7 464 kb/s
    Width : 544 pixels
    Height : 576 pixels
    Display aspect ratio : 4:3
    Frame rate : 25.000 FPS
    Standard : PAL
    Color space : YUV
    Chroma subsampling : 4:2:0
    Bit depth : 8 bits
    Scan type : Interlaced
    Scan order : Top Field First
    Compression mode : Lossy
    Bits/(Pixel*Frame) : 0.953
    Time code of first frame : 00:00:00:00
    Time code source : Group of pictures header
    GOP, Open/Closed : Open
    GOP, Open/Closed of first f : Closed
    Stream size : 168 MiB (96%)
    Color primaries : BT.601 PAL
    Transfer characteristics : BT.470 System B, BT.470 System G
    Matrix coefficients : BT.601

    Audio
    ID : 192 (0xC0)
    Format : MPEG Audio
    Format version : Version 1
    Format profile : Layer 2
    Duration : 3 min 9 s
    Bit rate mode : Constant
    Bit rate : 192 kb/s
    Channel(s) : 2 channels
    Sampling rate : 48.0 kHz
    Compression mode : Lossy
    Stream size : 4.33 MiB (2%)

    Hidden Content:
    You must either reply or click 'Like' to see the hidden information contained here.
     
    Last edited: Apr 13, 2018
    johymbim, Tiago, nicole21290 and 6 others like this.
  2. Loading...


  3. zuiderheide

    zuiderheide Well-Known Member

    Joined:
    Nov 18, 2013
    Messages:
    2,565
    Likes Received:
    87
  4. BetaKsi

    BetaKsi Well-Known Member

    Joined:
    Oct 18, 2015
    Messages:
    2,116
    Likes Received:
    571
    Thank you))
     
  5. Haralampos

    Haralampos Member

    Joined:
    Dec 18, 2015
    Messages:
    297
    Likes Received:
    6
  6. toonbbv

    toonbbv Well-Known Member

    Joined:
    Dec 11, 2013
    Messages:
    2,251
    Likes Received:
    106
    thank you
     
  7. exterminador

    exterminador Well-Known Member

    Joined:
    Jul 3, 2016
    Messages:
    2,443
    Likes Received:
    208
  8. gigidel

    gigidel Member

    Joined:
    Feb 1, 2015
    Messages:
    75
    Likes Received:
    2
    Many thanks!
     
  9. multimediafm

    multimediafm Well-Known Member Donor

    Joined:
    Mar 27, 2014
    Messages:
    13,292
    Likes Received:
    1,057
  10. peny20

    peny20 Well-Known Member

    Joined:
    Oct 23, 2013
    Messages:
    2,051
    Likes Received:
    54
    thank you
     
  11. Amauri Luiz

    Amauri Luiz Well-Known Member

    Joined:
    Jan 14, 2014
    Messages:
    1,972
    Likes Received:
    80
    Thank you!