SDTV Gwen Stefani - Now That Youve Got It (Ant and Decs SNL - 29th sept 07) -snoop-

Discussion in 'SD Live Performances' started by hanshermann, Apr 10, 2018.

  1. hanshermann

    hanshermann Well-Known Member Uploader

    Joined:
    Aug 24, 2016
    Messages:
    6,951
    Likes Received:
    11,166
    [​IMG]
    Gwen Stefani - Now That Youve Got It (Ant and Decs SNL - 29th sept 07) -snoop-

    General
    Complete name : gwen_stefani_-_now_that_youve_got_it_-_ant_and_decs_snt_-_29th_sept_07-snoop-.mpg
    Format : MPEG-PS
    File size : 87.7 MiB
    Duration : 3 min 21 s
    Overall bit rate mode : Variable
    Overall bit rate : 3 660 kb/s

    Video
    ID : 224 (0xE0)
    Format : MPEG Video
    Format version : Version 2
    Format profile : Main@Main
    Format settings, BVOP : Yes
    Format settings, Matrix : Custom
    Format settings, GOP : M=3, N=12
    Format settings, picture st : Frame
    Duration : 3 min 21 s
    Bit rate mode : Variable
    Bit rate : 3 395 kb/s
    Maximum bit rate : 15.0 Mb/s
    Width : 704 pixels
    Height : 576 pixels
    Display aspect ratio : 16:9
    Active Format Description : Letterbox 16:9 image, with alternative 14:9 center
    Frame rate : 25.000 FPS
    Standard : PAL
    Color space : YUV
    Chroma subsampling : 4:2:0
    Bit depth : 8 bits
    Scan type : Interlaced
    Scan order : Top Field First
    Compression mode : Lossy
    Bits/(Pixel*Frame) : 0.335
    Time code of first frame : 00:00:00:00
    Time code source : Group of pictures header
    GOP, Open/Closed : Open
    GOP, Open/Closed of first f : Closed
    Stream size : 81.3 MiB (93%)

    Audio
    ID : 192 (0xC0)
    Format : MPEG Audio
    Format version : Version 1
    Format profile : Layer 2
    Duration : 3 min 21 s
    Bit rate mode : Constant
    Bit rate : 192 kb/s
    Channel(s) : 2 channels
    Sampling rate : 48.0 kHz
    Compression mode : Lossy
    Stream size : 4.60 MiB (5%)

    Hidden Content:
    You must either reply or click 'Like' to see the hidden information contained here.
     
    Last edited: Apr 13, 2018
    johymbim, Haralampos, toonbbv and 5 others like this.
  2. Loading...


  3. BetaKsi

    BetaKsi Well-Known Member

    Joined:
    Oct 18, 2015
    Messages:
    2,038
    Likes Received:
    561
    Thank you))
     
  4. zuiderheide

    zuiderheide Well-Known Member

    Joined:
    Nov 18, 2013
    Messages:
    2,554
    Likes Received:
    86
  5. TrendMusic

    TrendMusic Well-Known Member

    Joined:
    Oct 7, 2013
    Messages:
    1,708
    Likes Received:
    159
  6. exterminador

    exterminador Well-Known Member

    Joined:
    Jul 3, 2016
    Messages:
    2,403
    Likes Received:
    208
  7. multimediafm

    multimediafm Well-Known Member Donor

    Joined:
    Mar 27, 2014
    Messages:
    13,139
    Likes Received:
    1,045
  8. Amauri Luiz

    Amauri Luiz Well-Known Member

    Joined:
    Jan 14, 2014
    Messages:
    1,923
    Likes Received:
    73
    Thank you
     
  9. peny20

    peny20 Well-Known Member

    Joined:
    Oct 23, 2013
    Messages:
    1,877
    Likes Received:
    54
    thanks
     
  10. toonbbv

    toonbbv Well-Known Member

    Joined:
    Dec 11, 2013
    Messages:
    2,205
    Likes Received:
    105
    thank you