SDTV Gwen Stefani - Hollaback girl (Top Of The Pops NED, 21-05-2005)

Discussion in 'SD Live Performances' started by hanshermann, Mar 22, 2018.

  1. hanshermann

    hanshermann Well-Known Member Uploader

    Joined:
    Aug 24, 2016
    Messages:
    7,543
    Likes Received:
    13,445
    [​IMG]
    Gwen Stefani - Hollaback girl (Top Of The Pops NED, 21-05-2005)

    General
    Complete name : Gwen Stefani - Hollaback girl (Top Of The Pops NED, 21-05-2005).avi
    Format : AVI
    Format/Info : Audio Video Interleave
    File size : 56.2 MiB
    Duration : 3 min 17 s
    Overall bit rate : 2 389 kb/s
    Writing application : VirtualDubMod 1.5.10.2 (build 2540/release)
    Writing library : VirtualDub build 24442/release

    Video
    ID : 0
    Format : MPEG-4 Visual
    Format settings, BVOP : 1
    Format settings, QPel : No
    Format settings, GMC : 2 warppoints
    Format settings, Matrix : Default (H.263)
    Codec ID : DX50
    Codec ID/Hint : DivX 5
    Duration : 3 min 17 s
    Bit rate : 2 315 kb/s
    Nominal bit rate : 9 996 kb/s
    Width : 696 pixels
    Height : 392 pixels
    Display aspect ratio : 16:9
    Frame rate : 25.000 FPS
    Color space : YUV
    Chroma subsampling : 4:2:0
    Bit depth : 8 bits
    Scan type : Progressive
    Compression mode : Lossy
    Bits/(Pixel*Frame) : 0.339
    Stream size : 54.5 MiB (97%)
    Writing library : DivX 1314m

    Audio
    ID : 1
    Format : WMA
    Format version : Version 2
    Codec ID : 161
    Codec ID/Info : Windows Media Audio
    Duration : 3 min 17 s
    Bit rate : 64.1 kb/s
    Channel(s) : 2 channels
    Sampling rate : 44.1 kHz
    Bit depth : 16 bits
    Stream size : 1.51 MiB (3%)
    Interleave, duration : 47 ms (1.16 video frame)
    Interleave, preload duratio : 510 ms

    Hidden Content:
    You must either reply or click 'Like' to see the hidden information contained here.
     
    Last edited: Apr 13, 2018
    johymbim, Bob Dole, Tiago and 8 others like this.
  2. Loading...


  3. zuiderheide

    zuiderheide Well-Known Member

    Joined:
    Nov 18, 2013
    Messages:
    2,644
    Likes Received:
    90
  4. BetaKsi

    BetaKsi Well-Known Member

    Joined:
    Oct 18, 2015
    Messages:
    2,269
    Likes Received:
    593
    Thank you))
     
  5. Haralampos

    Haralampos Member

    Joined:
    Dec 18, 2015
    Messages:
    358
    Likes Received:
    8
    thanks!
     
  6. toonbbv

    toonbbv Well-Known Member

    Joined:
    Dec 11, 2013
    Messages:
    2,289
    Likes Received:
    108
    thank you
     
  7. dinhotwain

    dinhotwain Well-Known Member

    Joined:
    Jan 1, 2015
    Messages:
    1,242
    Likes Received:
    143
  8. gigidel

    gigidel Member

    Joined:
    Feb 1, 2015
    Messages:
    90
    Likes Received:
    3
    Thank you!
     
  9. multimediafm

    multimediafm Well-Known Member Donor

    Joined:
    Mar 27, 2014
    Messages:
    13,568
    Likes Received:
    1,063
  10. Amauri Luiz

    Amauri Luiz Well-Known Member

    Joined:
    Jan 14, 2014
    Messages:
    2,039
    Likes Received:
    84
    Thank you