Gwen Stefani - Hollaback Girl (MTVIDOL-1080i-DD2.0-Djodjara)-HDMania

Discussion in 'MTV IDOL' started by Djodjara, Jun 18, 2015.

  1. sltoa

    sltoa Member

    Joined:
    Feb 9, 2015
    Messages:
    61
    Likes Received:
    3
    thanks
     
  2. tapions

    tapions Well-Known Member

    Joined:
    Aug 30, 2016
    Messages:
    1,045
    Likes Received:
    94
    gracias
     
  3. Jrec

    Jrec Active Member

    Joined:
    May 11, 2016
    Messages:
    673
    Likes Received:
    44
    Thanks
     
  4. Pedro16

    Pedro16 Member

    Joined:
    Jan 16, 2017
    Messages:
    216
    Likes Received:
    7
    Thanks!!!
     
  5. plwww

    plwww Active Member

    Joined:
    May 28, 2016
    Messages:
    659
    Likes Received:
    47
    thank
     
  6. Daniel Leite

    Daniel Leite Member

    Joined:
    Feb 18, 2017
    Messages:
    40
    Likes Received:
    7
    Nice! Thx!

    [​IMG]
    [​IMG]

    General:
    ID : 1 (0x1)
    Format : MPEG-TS
    File size : 189 MiB
    Duration : 3mn 25s
    Overall bit rate mode : Variable
    Overall bit rate : 7 733 Kbps

    Video:
    ID : 310 (0x136)
    Menu ID : 1 (0x1)
    Format : AVC
    Format/Info : Advanced Video Codec
    Format profile : High@L4.0
    Format settings, CABAC : Yes
    Format settings, ReFrames : 4 frames
    Codec ID : 27
    Duration : 3mn 25s
    Bit rate : 7 157 Kbps
    Width : 1 920 pixels
    Height : 1 080 pixels
    Display aspect ratio : 16:9
    Frame rate : 25.000 fps
    Standard : Component
    Color space : YUV
    Chroma subsampling : 4:2:0
    Bit depth : 8 bits
    Scan type : MBAFF
    Scan order : Top Field First
    Bits/(Pixel*Frame) : 0.138
    Stream size : 175 MiB (93%)
    Color primaries : BT.709
    Transfer characteristics : BT.709
    Matrix coefficients : BT.709
    Color range : Limited

    Audio:
    ID : 321 (0x141)
    Menu ID : 1 (0x1)
    Format : AC-3
    Format/Info : Audio Coding 3
    Mode extension : CM (complete main)
    Format settings, Endianness : Big
    Codec ID : 6
    Duration : 3mn 25s
    Bit rate mode : Constant
    Bit rate : 192 Kbps
    Channel(s) : 2 channels
    Channel positions : Front: L R
    Sampling rate : 48.0 KHz
    Bit depth : 16 bits
    Compression mode : Lossy
    Stream size : 4.70 MiB (2%)
    Language : French

    ***Hidden content cannot be quoted.***
    [/QUOTE]
     
  7. constantinegt

    constantinegt Member

    Joined:
    Feb 27, 2017
    Messages:
    106
    Likes Received:
    3
  8. hanshermann

    hanshermann Well-Known Member Uploader

    Joined:
    Aug 24, 2016
    Messages:
    7,018
    Likes Received:
    11,685
    wahts taht
     
  9. brownbradpitt613

    brownbradpitt613 Member

    Joined:
    Sep 3, 2017
    Messages:
    705
    Likes Received:
    25
    obrigado
     
  10. blackdeath23

    blackdeath23 New Member

    Joined:
    Dec 1, 2017
    Messages:
    25
    Likes Received:
    0
    t
    hanks
     
  11. ffwema

    ffwema Member

    Joined:
    Dec 19, 2016
    Messages:
    137
    Likes Received:
    2
    Thanks
     
  12. trevorme

    trevorme Member

    Joined:
    Jan 12, 2017
    Messages:
    513
    Likes Received:
    16
    thanks
     
  13. ildson

    ildson Active Member

    Joined:
    Nov 4, 2017
    Messages:
    468
    Likes Received:
    40
    thanks
     
  14. Praveen867

    Praveen867 Active Member

    Joined:
    Nov 14, 2016
    Messages:
    648
    Likes Received:
    25
    tyyyyyy
     
  15. sergialonzo

    sergialonzo Member

    Joined:
    Jan 16, 2018
    Messages:
    276
    Likes Received:
    6
  16. tp327

    tp327 Member

    Joined:
    Apr 4, 2018
    Messages:
    276
    Likes Received:
    7
    Thanks