Gwen Stefani - Hollaback Girl (MTVIDOL-1080i-DD2.0-Djodjara)-HDMania

Discussion in 'MTV IDOL' started by Djodjara, Jun 18, 2015.

  1. Djodjara

    Djodjara Gwen Fan Capper

    Joined:
    Sep 6, 2014
    Messages:
    860
    Likes Received:
    1,561
    Gwen Stefani - Hollaback Girl (MTV Idol-1080i-Djodjara)-HDMania

    [​IMG]
    [​IMG]

    General:
    ID : 1 (0x1)
    Format : MPEG-TS
    File size : 189 MiB
    Duration : 3mn 25s
    Overall bit rate mode : Variable
    Overall bit rate : 7 733 Kbps

    Video:
    ID : 310 (0x136)
    Menu ID : 1 (0x1)
    Format : AVC
    Format/Info : Advanced Video Codec
    Format profile : [email protected]
    Format settings, CABAC : Yes
    Format settings, ReFrames : 4 frames
    Codec ID : 27
    Duration : 3mn 25s
    Bit rate : 7 157 Kbps
    Width : 1 920 pixels
    Height : 1 080 pixels
    Display aspect ratio : 16:9
    Frame rate : 25.000 fps
    Standard : Component
    Color space : YUV
    Chroma subsampling : 4:2:0
    Bit depth : 8 bits
    Scan type : MBAFF
    Scan order : Top Field First
    Bits/(Pixel*Frame) : 0.138
    Stream size : 175 MiB (93%)
    Color primaries : BT.709
    Transfer characteristics : BT.709
    Matrix coefficients : BT.709
    Color range : Limited

    Audio:
    ID : 321 (0x141)
    Menu ID : 1 (0x1)
    Format : AC-3
    Format/Info : Audio Coding 3
    Mode extension : CM (complete main)
    Format settings, Endianness : Big
    Codec ID : 6
    Duration : 3mn 25s
    Bit rate mode : Constant
    Bit rate : 192 Kbps
    Channel(s) : 2 channels
    Channel positions : Front: L R
    Sampling rate : 48.0 KHz
    Bit depth : 16 bits
    Compression mode : Lossy
    Stream size : 4.70 MiB (2%)
    Language : French

    Hidden Content:
    You must reply before you can see the hidden data contained here.
     
    rhea, CELOBRAZiL and 777josem like this.
  2. 777josem

    777josem ProRes 1080p LPCM V . I . P. Uploader

    Joined:
    Sep 1, 2014
    Messages:
    3,737
    Likes Received:
    3,037
    :happy:Thank you so much!
     
  3. Dreamer

    Dreamer Lana Del Rey ♥ Halsey Capper V . I . P. Uploader

    Joined:
    Dec 4, 2014
    Messages:
    2,903
    Likes Received:
    4,581
    Thank you so much
     
  4. Crusha

    Crusha Well-Known Member Capper V . I . P.

    Joined:
    Oct 15, 2014
    Messages:
    2,358
    Likes Received:
    2,672
    thank you
     
  5. Zatimi

    Zatimi Active Member

    Joined:
    Aug 27, 2014
    Messages:
    763
    Likes Received:
    146
    thanks a million
     
  6. rhea

    rhea Well-Known Member

    Joined:
    Jan 6, 2014
    Messages:
    7,115
    Likes Received:
    788
    thank you so much
     
  7. lukierrywhere

    lukierrywhere Member

    Joined:
    May 1, 2015
    Messages:
    170
    Likes Received:
    4
    Thank you
     
  8. lukierrywhere

    lukierrywhere Member

    Joined:
    May 1, 2015
    Messages:
    170
    Likes Received:
    4
    Thank you
     
  9. Lorena Fernandes

    Lorena Fernandes New Member

    Joined:
    Sep 21, 2014
    Messages:
    17
    Likes Received:
    0
  10. Vinny

    Vinny Well-Known Member

    Joined:
    Dec 26, 2013
    Messages:
    3,617
    Likes Received:
    30
    Thanks! ;D
     
  11. Fabitos ND

    Fabitos ND Member

    Joined:
    Dec 20, 2014
    Messages:
    126
    Likes Received:
    9
    Thanks so much for Gwen! :D
     
  12. jonathan joel 97

    jonathan joel 97 Justin bieber

    Joined:
    Oct 1, 2015
    Messages:
    276
    Likes Received:
    199
    thank you!!!:)
     
  13. furkan

    furkan Member

    Joined:
    Oct 9, 2015
    Messages:
    249
    Likes Received:
    7
    thnsk youuuu
     
  14. Snorom6

    Snorom6 Well-Known Member V . I . P. Uploader

    Joined:
    Dec 17, 2015
    Messages:
    4,248
    Likes Received:
    5,302
  15. RUS22877773

    RUS22877773 Member

    Joined:
    Jan 7, 2016
    Messages:
    101
    Likes Received:
    1
    Thank you
     
  16. maurohachen

    maurohachen Active Member

    Joined:
    Feb 24, 2015
    Messages:
    469
    Likes Received:
    25
    o my goooood
     
  17. Haralampos

    Haralampos Member

    Joined:
    Dec 18, 2015
    Messages:
    166
    Likes Received:
    5
    Thank you!
     
  18. Pavulon

    Pavulon Well-Known Member

    Joined:
    Mar 22, 2016
    Messages:
    3,808
    Likes Received:
    492
    thanks
     
  19. Albano Salinas

    Albano Salinas Well-Known Member

    Joined:
    Nov 6, 2014
    Messages:
    489
    Likes Received:
    1,099
    thanks so much!.-
     
  20. revilo18

    revilo18 Well-Known Member

    Joined:
    May 26, 2016
    Messages:
    1,891
    Likes Received:
    85
    thankkk