SDTV Gwen Stefani ft. Eve - Rich Girl (SNL 19.03.05)

Discussion in 'SD Live Performances' started by hanshermann, Apr 10, 2018.

  1. hanshermann

    hanshermann Well-Known Member Uploader

    Joined:
    Aug 24, 2016
    Messages:
    6,463
    Likes Received:
    9,959
    [​IMG]
    Gwen Stefani ft. Eve - Rich Girl (SNL 19.03.05)

    General
    Complete name : D:\Videos\VMusic\Sharemania\Neuer Ordner\Gwen Stefani ft. Eve - Rich Girl (SNL 19.03.05)\Gwen Stefani ft. Eve - Rich Girl (SNL 19.03.05).mpg
    Format : MPEG-PS
    File size : 152 MiB
    Duration : 3 min 5 s
    Overall bit rate mode : Variable
    Overall bit rate : 6 891 kb/s

    Video
    ID : 224 (0xE0)
    Format : MPEG Video
    Format version : Version 2
    Format profile : Main@Main
    Format settings, BVOP : Yes
    Format settings, Matrix : Custom
    Format settings, GOP : Variable
    Duration : 3 min 5 s
    Bit rate mode : Variable
    Bit rate : 6 561 kb/s
    Maximum bit rate : 9 800 kb/s
    Width : 720 pixels
    Height : 480 pixels
    Display aspect ratio : 4:3
    Frame rate : 29.970 (30000/1001) FPS
    Standard : NTSC
    Color space : YUV
    Chroma subsampling : 4:2:0
    Bit depth : 8 bits
    Scan type : Progressive
    Scan order : Top Field First
    Compression mode : Lossy
    Bits/(Pixel*Frame) : 0.633
    Time code of first frame : 01:00:00:00
    Time code source : Group of pictures header
    GOP, Open/Closed : Open
    GOP, Open/Closed of first f : Closed
    Stream size : 145 MiB (95%)

    Audio
    ID : 189 (0xBD)-128 (0x80)
    Format : AC-3
    Format/Info : Audio Coding 3
    Format settings, Endianness : Big
    Muxing mode : DVD-Video
    Duration : 3 min 5 s
    Bit rate mode : Constant
    Bit rate : 192 kb/s
    Channel(s) : 2 channels
    Channel positions : Front: L R
    Sampling rate : 48.0 kHz
    Frame rate : 31.250 FPS (1536 spf)
    Bit depth : 16 bits
    Compression mode : Lossy
    Stream size : 4.24 MiB (3%)
    Service kind : Complete Main

    Menu

    Hidden Content:
    You must either reply or click 'Like' to see the hidden information contained here.
     
    Last edited: Apr 13, 2018
  2. Loading...


  3. zuiderheide

    zuiderheide Well-Known Member

    Joined:
    Nov 18, 2013
    Messages:
    2,508
    Likes Received:
    84
  4. xiao_yu_1019

    xiao_yu_1019 Active Member

    Joined:
    Jan 1, 2015
    Messages:
    565
    Likes Received:
    40
    thank you
     
  5. TrendMusic

    TrendMusic Well-Known Member

    Joined:
    Oct 7, 2013
    Messages:
    1,680
    Likes Received:
    156
  6. BetaKsi

    BetaKsi Well-Known Member

    Joined:
    Oct 18, 2015
    Messages:
    1,927
    Likes Received:
    537
    Thank you))
     
  7. toonbbv

    toonbbv Well-Known Member

    Joined:
    Dec 11, 2013
    Messages:
    2,188
    Likes Received:
    103
    thank you
     
  8. exterminador

    exterminador Well-Known Member

    Joined:
    Jul 3, 2016
    Messages:
    2,295
    Likes Received:
    201
  9. mcslimshady

    mcslimshady Well-Known Member

    Joined:
    Jun 20, 2016
    Messages:
    1,825
    Likes Received:
    46
    thanks man
     
  10. gigidel

    gigidel Member

    Joined:
    Feb 1, 2015
    Messages:
    61
    Likes Received:
    2
    Many thanks!
     
  11. multimediafm

    multimediafm Well-Known Member Donor

    Joined:
    Mar 27, 2014
    Messages:
    12,882
    Likes Received:
    1,013
  12. Amauri Luiz

    Amauri Luiz Well-Known Member

    Joined:
    Jan 14, 2014
    Messages:
    1,810
    Likes Received:
    72