SDTV Gwen Stefani ft. Eve - Rich Girl (Grammy Awards '05)

Discussion in 'SD Live Performances' started by hanshermann, Apr 10, 2018.

  1. hanshermann

    hanshermann Well-Known Member Uploader

    Joined:
    Aug 24, 2016
    Messages:
    6,951
    Likes Received:
    11,166
    [​IMG]
    Gwen Stefani ft. Eve - Rich Girl (Grammy Awards '05)

    General
    Complete name : D:\Videos\VMusic\Sharemania\Neuer Ordner\Gwen Stefani ft. Eve - Rich Girl (Grammy Awards '05)\Gwen Stefani ft. Eve - Rich Girl (Grammy Awards '05).mpg
    Format : MPEG-PS
    File size : 38.0 MiB
    Duration : 2 min 43 s
    Overall bit rate mode : Constant
    Overall bit rate : 1 946 kb/s
    Writing library : encoded by TMPGEnc (ver. 2.56.39.143)

    Video
    ID : 224 (0xE0)
    Format : MPEG Video
    Format version : Version 1
    Format settings, BVOP : Yes
    Format settings, Matrix : Custom
    Format settings, GOP : M=3, N=18
    Duration : 2 min 43 s
    Bit rate mode : Constant
    Bit rate : 1 600 kb/s
    Width : 352 pixels
    Height : 240 pixels
    Display aspect ratio : 4:3
    Frame rate : 29.970 (30000/1001) FPS
    Standard : NTSC
    Color space : YUV
    Chroma subsampling : 4:2:0
    Bit depth : 8 bits
    Scan type : Progressive
    Compression mode : Lossy
    Bits/(Pixel*Frame) : 0.632
    Time code of first frame : 00:00:00:00
    Time code source : Group of pictures header
    GOP, Open/Closed : Open
    GOP, Open/Closed of first f : Closed
    Stream size : 31.0 MiB (82%)
    Writing library : TMPGEnc 2.56.39.143

    Audio
    ID : 192 (0xC0)
    Format : MPEG Audio
    Format version : Version 1
    Format profile : Layer 2
    Duration : 2 min 43 s
    Bit rate mode : Constant
    Bit rate : 320 kb/s
    Channel(s) : 2 channels
    Sampling rate : 48.0 kHz
    Compression mode : Lossy
    Stream size : 6.25 MiB (16%)

    Hidden Content:
    You must either reply or click 'Like' to see the hidden information contained here.
     
    Last edited: Apr 13, 2018
    johymbim, Haralampos, stud and 5 others like this.
  2. Loading...


  3. zuiderheide

    zuiderheide Well-Known Member

    Joined:
    Nov 18, 2013
    Messages:
    2,554
    Likes Received:
    86
  4. TrendMusic

    TrendMusic Well-Known Member

    Joined:
    Oct 7, 2013
    Messages:
    1,708
    Likes Received:
    159
  5. BetaKsi

    BetaKsi Well-Known Member

    Joined:
    Oct 18, 2015
    Messages:
    2,038
    Likes Received:
    561
    Thank you))
     
  6. exterminador

    exterminador Well-Known Member

    Joined:
    Jul 3, 2016
    Messages:
    2,403
    Likes Received:
    208
  7. mcslimshady

    mcslimshady Well-Known Member

    Joined:
    Jun 20, 2016
    Messages:
    1,903
    Likes Received:
    49
    thanks man
     
  8. multimediafm

    multimediafm Well-Known Member Donor

    Joined:
    Mar 27, 2014
    Messages:
    13,139
    Likes Received:
    1,045
  9. Amauri Luiz

    Amauri Luiz Well-Known Member

    Joined:
    Jan 14, 2014
    Messages:
    1,923
    Likes Received:
    73
  10. toonbbv

    toonbbv Well-Known Member

    Joined:
    Dec 11, 2013
    Messages:
    2,205
    Likes Received:
    105
    thank you
     
  11. timlecler

    timlecler Member

    Joined:
    May 19, 2018
    Messages:
    371
    Likes Received:
    25