SDTV Gwen Stefani feat. Eve - Rich Girl (GMA 22.03.05)

Discussion in 'SD Live Performances' started by hanshermann, Apr 10, 2018.

  1. hanshermann

    hanshermann Well-Known Member Uploader

    Joined:
    Aug 24, 2016
    Messages:
    7,020
    Likes Received:
    11,694
    [​IMG]
    Gwen Stefani feat. Eve - Rich Girl (GMA 22.03.05)

    General
    Complete name : Gwen Stefani feat. Eve - Rich Girl (GMA 22.03.05).mpg
    Format : MPEG-PS
    File size : 134 MiB
    Duration : 2 min 42 s
    Overall bit rate mode : Variable
    Overall bit rate : 6 897 kb/s

    Video
    ID : 224 (0xE0)
    Format : MPEG Video
    Format version : Version 2
    Format profile : Main@Main
    Format settings, BVOP : Yes
    Format settings, Matrix : Custom
    Format settings, GOP : M=3, N=12
    Duration : 2 min 42 s
    Bit rate mode : Variable
    Bit rate : 6 567 kb/s
    Maximum bit rate : 9 800 kb/s
    Width : 720 pixels
    Height : 480 pixels
    Display aspect ratio : 4:3
    Frame rate : 29.970 (30000/1001) FPS
    Standard : NTSC
    Color space : YUV
    Chroma subsampling : 4:2:0
    Bit depth : 8 bits
    Scan type : Progressive
    Scan order : Top Field First
    Compression mode : Lossy
    Bits/(Pixel*Frame) : 0.634
    Time code of first frame : 01:00:00:00
    Time code source : Group of pictures header
    GOP, Open/Closed : Open
    GOP, Open/Closed of first f : Closed
    Stream size : 127 MiB (95%)

    Audio
    ID : 189 (0xBD)-128 (0x80)
    Format : AC-3
    Format/Info : Audio Coding 3
    Format settings, Endianness : Big
    Muxing mode : DVD-Video
    Duration : 2 min 42 s
    Bit rate mode : Constant
    Bit rate : 192 kb/s
    Channel(s) : 2 channels
    Channel positions : Front: L R
    Sampling rate : 48.0 kHz
    Frame rate : 31.250 FPS (1536 spf)
    Bit depth : 16 bits
    Compression mode : Lossy
    Stream size : 3.71 MiB (3%)
    Service kind : Complete Main

    Menu

    Hidden Content:
    You must either reply or click 'Like' to see the hidden information contained here.
     
    Last edited: Apr 13, 2018
  2. Loading...


  3. zuiderheide

    zuiderheide Well-Known Member

    Joined:
    Nov 18, 2013
    Messages:
    2,565
    Likes Received:
    87
  4. TrendMusic

    TrendMusic Well-Known Member

    Joined:
    Oct 7, 2013
    Messages:
    1,727
    Likes Received:
    160
    thanks ... not full perfomance?
     
    Last edited: Apr 10, 2018
  5. BetaKsi

    BetaKsi Well-Known Member

    Joined:
    Oct 18, 2015
    Messages:
    2,116
    Likes Received:
    571
    Thank you))
     
  6. exterminador

    exterminador Well-Known Member

    Joined:
    Jul 3, 2016
    Messages:
    2,443
    Likes Received:
    208
  7. multimediafm

    multimediafm Well-Known Member Donor

    Joined:
    Mar 27, 2014
    Messages:
    13,292
    Likes Received:
    1,057
  8. Amauri Luiz

    Amauri Luiz Well-Known Member

    Joined:
    Jan 14, 2014
    Messages:
    1,972
    Likes Received:
    80
    Thank you!
     
  9. toonbbv

    toonbbv Well-Known Member

    Joined:
    Dec 11, 2013
    Messages:
    2,251
    Likes Received:
    106
    thank you
     
  10. fernanassis

    fernanassis Active Member

    Joined:
    Sep 8, 2014
    Messages:
    526
    Likes Received:
    33
  11. Lisa-20112011

    Lisa-20112011 Active Member

    Joined:
    Jun 25, 2018
    Messages:
    1,040
    Likes Received:
    16