MASTER Gucci Mane - Curve (feat. The Weeknd) [Master 1080p-Hossein Enr7que]

Discussion in 'MASTER & MASTER RIP' started by Hossein Enr7que, Feb 13, 2018.

  1. Hossein Enr7que

    Hossein Enr7que Enriquette . ZQUAD . XO V . I . P. Uploader

    Joined:
    May 13, 2016
    Messages:
    1,319
    Likes Received:
    3,516
    [​IMG]
    Code:
    General
    Complete name                            : C:\Adownloader\downloads\Gucci Mane - Curve (feat. The Weeknd) [Master 1080p-Hossein Enr7que].mp4
    Format                                   : MPEG-4
    Format profile                           : Base Media / Version 2
    Codec ID                                 : mp42 (mp42/mp41/isom/avc1)
    File size                                : 100 MiB
    Duration                                 : 2 min 41 s
    Overall bit rate mode                    : Variable
    Overall bit rate                         : 5 194 kb/s
    Encoded date                             : UTC 2017-12-08 20:56:15
    Tagged date                              : UTC 2017-12-08 20:56:15
    
    Video
    ID                                       : 1
    Format                                   : AVC
    Format/Info                              : Advanced Video Codec
    Format profile                           : High@L4
    Format settings                          : CABAC / 5 Ref Frames
    Format settings, CABAC                   : Yes
    Format settings, RefFrames               : 5 frames
    Codec ID                                 : avc1
    Codec ID/Info                            : Advanced Video Coding
    Duration                                 : 2 min 41 s
    Bit rate                                 : 5 000 kb/s
    Width                                    : 1 460 pixels
    Height                                   : 1 080 pixels
    Display aspect ratio                     : 4:3
    Frame rate mode                          : Constant
    Frame rate                               : 23.976 (24000/1001) FPS
    Color space                              : YUV
    Chroma subsampling                       : 4:2:0
    Bit depth                                : 8 bits
    Scan type                                : Progressive
    Bits/(Pixel*Frame)                       : 0.132
    Stream size                              : 95.0 MiB (95%)
    Writing library                          : x264 core 152 r10 ba24899
    Encoding settings                        : cabac=1 / ref=5 / deblock=1:0:0 / analyse=0x3:0x113 / me=hex / subme=8 / psy=1 / psy_rd=1.00:0.00 / mixed_ref=1 / me_range=16 / chroma_me=1 / trellis=2 / 8x8dct=1 / cqm=0 / deadzone=21,11 / fast_pskip=1 / chroma_qp_offset=-2 / threads=34 / lookahead_threads=5 / sliced_threads=0 / nr=0 / decimate=1 / interlaced=0 / bluray_compat=0 / stitchable=1 / constrained_intra=0 / bframes=3 / b_pyramid=2 / b_adapt=2 / b_bias=0 / direct=3 / weightb=1 / open_gop=0 / weightp=2 / keyint=infinite / keyint_min=23 / scenecut=40 / intra_refresh=0 / rc_lookahead=50 / rc=2pass / mbtree=1 / bitrate=5000 / ratetol=1.0 / qcomp=0.60 / qpmin=5 / qpmax=69 / qpstep=4 / cplxblur=20.0 / qblur=0.5 / vbv_maxrate=5500 / vbv_bufsize=15000 / nal_hrd=none / filler=0 / ip_ratio=1.40 / aq=1:1.00
    Encoded date                             : UTC 2017-12-08 20:56:15
    Tagged date                              : UTC 2017-12-08 20:56:15
    Color range                              : Limited
    Color primaries                          : BT.709
    Transfer characteristics                 : BT.709
    Matrix coefficients                      : BT.709
    
    Audio
    ID                                       : 2
    Format                                   : AAC
    Format/Info                              : Advanced Audio Codec
    Format profile                           : LC
    Codec ID                                 : mp4a-40-2
    Duration                                 : 2 min 41 s
    Bit rate mode                            : Variable
    Bit rate                                 : 256 kb/s
    Channel(s)                               : 2 channels
    Channel positions                        : Front: L R
    Sampling rate                            : 48.0 kHz
    Frame rate                               : 46.875 FPS (1024 SPF)
    Compression mode                         : Lossy
    Stream size                              : 4.93 MiB (5%)
    Encoded date                             : UTC 2017-12-08 20:56:15
    Tagged date                              : UTC 2017-12-08 20:56:15
    Server: MEGA
    Hidden Content:
    You must either reply or click 'Like' to see the hidden information contained here.
     
    epicrad24, clayeon and JimmySwifties like this.
  2. Loading...


  3. JimmySwifties

    JimmySwifties [Uploader] and [Requester]

    Joined:
    Mar 23, 2017
    Messages:
    204
    Likes Received:
    275
  4. clayeon

    clayeon New Member

    Joined:
    Jun 12, 2017
    Messages:
    16
    Likes Received:
    5
    thanks!
     
  5. epicrad24

    epicrad24 New Member

    Joined:
    Apr 25, 2018
    Messages:
    21
    Likes Received:
    2
    xoxoxo