Green Day - Oh Love (Uncensored) 1080p

Discussion in 'Music Videos' started by Vector09, Oct 17, 2018.

  1. Vector09

    Vector09 Well-Known Member

    Joined:
    Feb 16, 2016
    Messages:
    414
    Likes Received:
    763
    [​IMG]
    Code:
    General
    Complete name                  : D:\Green Day - Oh Love (Uncensored) 1080p.mp4
    Format                         : MPEG-4
    Format profile                 : Base Media / Version 2
    Codec ID                       : mp42 (mp42/mp41/isom/avc1)
    File size                      : 171 MiB
    Duration                       : 5 min 2 s
    Overall bit rate mode          : Variable
    Overall bit rate               : 4 750 kb/s
    Encoded date                   : UTC 2015-06-17 19:37:39
    Tagged date                    : UTC 2015-06-17 19:37:39
    
    Video
    ID                             : 1
    Format                         : AVC
    Format/Info                    : Advanced Video Codec
    Format profile                 : High@L4
    Format settings, CABAC         : Yes
    Format settings, RefFrames     : 4 frames
    Codec ID                       : avc1
    Codec ID/Info                  : Advanced Video Coding
    Duration                       : 5 min 2 s
    Bit rate                       : 4 500 kb/s
    Width                          : 1 920 pixels
    Height                         : 1 080 pixels
    Display aspect ratio           : 16:9
    Frame rate mode                : Constant
    Frame rate                     : 23.976 (24000/1001) FPS
    Color space                    : YUV
    Chroma subsampling             : 4:2:0
    Bit depth                      : 8 bits
    Scan type                      : Progressive
    Bits/(Pixel*Frame)             : 0.091
    Stream size                    : 162 MiB (95%)
    Writing library                : x264 core 146 r16 121396c
    Encoding settings              : cabac=1 / ref=3 / deblock=1:0:0 / analyse=0x3:0x113 / me=hex / subme=7 / psy=1 / psy_rd=1.00:0.00 / mixed_ref=1 / me_range=16 / chroma_me=1 / trellis=1 / 8x8dct=1 / cqm=0 / deadzone=21,11 / fast_pskip=1 / chroma_qp_offset=-2 / threads=48 / lookahead_threads=8 / sliced_threads=0 / nr=0 / decimate=1 / interlaced=0 / bluray_compat=0 / stitchable=1 / constrained_intra=0 / bframes=3 / b_pyramid=2 / b_adapt=1 / b_bias=0 / direct=1 / weightb=1 / open_gop=0 / weightp=2 / keyint=infinite / keyint_min=23 / scenecut=40 / intra_refresh=0 / rc_lookahead=40 / rc=2pass / mbtree=1 / bitrate=4500 / ratetol=1.0 / qcomp=0.60 / qpmin=5 / qpmax=69 / qpstep=4 / cplxblur=20.0 / qblur=0.5 / vbv_maxrate=4950 / vbv_bufsize=13500 / nal_hrd=none / filler=0 / ip_ratio=1.40 / aq=1:1.00
    Encoded date                   : UTC 2015-06-17 19:37:39
    Tagged date                    : UTC 2015-06-17 19:37:39
    Color range                    : Limited
    Color primaries                : BT.709
    Transfer characteristics       : BT.709
    Matrix coefficients            : BT.709
    
    Audio
    ID                             : 2
    Format                         : AAC
    Format/Info                    : Advanced Audio Codec
    Format profile                 : LC
    Codec ID                       : 40
    Duration                       : 5 min 2 s
    Bit rate mode                  : Variable
    Bit rate                       : 256 kb/s
    Channel(s)                     : 2 channels
    Channel positions              : Front: L R
    Sampling rate                  : 48.0 kHz
    Frame rate                     : 46.875 FPS (1024 SPF)
    Compression mode               : Lossy
    Stream size                    : 9.23 MiB (5%)
    Encoded date                   : UTC 2015-06-17 19:37:39
    Tagged date                    : UTC 2015-06-17 19:37:39
    
    


    Download:

    Hidden Content:
    You must reply before you can see the hidden data contained here.
     
  2. Loading...


  3. Tiago

    Tiago Well-Known Member

    Joined:
    Dec 7, 2013
    Messages:
    2,347
    Likes Received:
    96
    thanks
     
  4. Rey619Spear

    Rey619Spear [Title Pending]

    Joined:
    Aug 18, 2017
    Messages:
    113
    Likes Received:
    45
    Thank you so much!
     
  5. carlos024333

    carlos024333 Active Member

    Joined:
    Mar 28, 2016
    Messages:
    787
    Likes Received:
    32
  6. Tuyioply

    Tuyioply New Member

    Joined:
    Nov 7, 2018
    Messages:
    4
    Likes Received:
    0
    Thanx