Green Day - Boulevard Of Broken Dreams (VH1HD-1080i-DD2.0-Crusha)

Discussion in 'VH1 HD' started by Crusha, Mar 14, 2016.

  1. Crusha

    Crusha Well-Known Member Capper V . I . P.

    Joined:
    Oct 15, 2014
    Messages:
    2,357
    Likes Received:
    2,523
    [​IMG] [​IMG] [​IMG]

    Mediainfo
    General
    ID : 1 (0x1)
    Complete name : Green Day - Boulevard Of Broken Dreams (VH1.HD.1080i.DD2.0).-Crusha.ts
    Format : MPEG-TS
    File size : 131 MiB
    Duration : 4mn 44s
    Overall bit rate mode : Variable
    Overall bit rate : 3 851 Kbps

    Video
    ID : 2943 (0xB7F)
    Menu ID : 1515 (0x5EB)
    Format : AVC
    Format/Info : Advanced Video Codec
    Format profile : [email protected]
    Format settings, CABAC : Yes
    Format settings, ReFrames : 4 frames
    Codec ID : 27
    Duration : 4mn 44s
    Bit rate : 3 272 Kbps
    Width : 1 920 pixels
    Height : 1 080 pixels
    Display aspect ratio : 16:9
    Frame rate : 29.970 fps
    Standard : Component
    Color space : YUV
    Chroma subsampling : 4:2:0
    Bit depth : 8 bits
    Scan type : MBAFF
    Scan order : Top Field First
    Bits/(Pixel*Frame) : 0.053
    Stream size : 111 MiB (85%)
    Color range : Limited
    Color primaries : BT.709
    Transfer characteristics : BT.709
    Matrix coefficients : BT.709

    Audio
    ID : 3909 (0xF45)
    Menu ID : 1515 (0x5EB)
    Format : AC-3
    Format/Info : Audio Coding 3
    Mode extension : CM (complete main)
    Format settings, Endianness : Big
    Codec ID : 6
    Duration : 4mn 44s
    Bit rate mode : Constant
    Bit rate : 384 Kbps
    Channel(s) : 2 channels
    Channel positions : Front: L R
    Sampling rate : 48.0 KHz
    Bit depth : 16 bits
    Compression mode : Lossy
    Stream size : 13.0 MiB (10%)
    Language : English
    Hidden Content:
    You must reply before you can see the hidden data contained here.
    Password: crusha
     
    snake1 and soybrulio like this.
  2. Loading...


  3. Snorom6

    Snorom6 Well-Known Member V . I . P. Uploader

    Joined:
    Dec 17, 2015
    Messages:
    4,248
    Likes Received:
    4,889
  4. Colby

    Colby Member

    Joined:
    Oct 31, 2015
    Messages:
    125
    Likes Received:
    1
    thanks :)
     
  5. royevilone

    royevilone Well-Known Member Donor

    Joined:
    Feb 16, 2016
    Messages:
    995
    Likes Received:
    650
    Thanks
     
  6. clublandtiger

    clublandtiger Member

    Joined:
    Apr 4, 2016
    Messages:
    67
    Likes Received:
    7
  7. killers23

    killers23 Active Member

    Joined:
    Feb 27, 2015
    Messages:
    622
    Likes Received:
    83
    thank you
     
  8. soybrulio

    soybrulio New Member

    Joined:
    May 8, 2016
    Messages:
    8
    Likes Received:
    0
    green daaaaay!!!
     
  9. Chris Sooz

    Chris Sooz Member

    Joined:
    Jan 13, 2016
    Messages:
    238
    Likes Received:
    3
    Thanks!
     
  10. adidasos

    adidasos Member

    Joined:
    Nov 4, 2014
    Messages:
    35
    Likes Received:
    3
    Thanks for this! :)
     
  11. faz

    faz Member

    Joined:
    Jan 9, 2014
    Messages:
    273
    Likes Received:
    2
    thanks....
     
  12. archlalo

    archlalo New Member

    Joined:
    Jul 26, 2016
    Messages:
    2
    Likes Received:
    0
  13. Johan Pinzon

    Johan Pinzon Member

    Joined:
    Aug 15, 2016
    Messages:
    304
    Likes Received:
    12
  14. GD2016SE

    GD2016SE New Member

    Joined:
    Oct 16, 2016
    Messages:
    20
    Likes Received:
    1
    thanks
     
  15. wangyuqiang

    wangyuqiang Member

    Joined:
    Jul 21, 2016
    Messages:
    135
    Likes Received:
    4
    thank you
     
  16. John fresco

    John fresco :v

    Joined:
    Apr 23, 2017
    Messages:
    179
    Likes Received:
    44
  17. valtersc

    valtersc Active Member

    Joined:
    Nov 19, 2014
    Messages:
    256
    Likes Received:
    168
  18. nastybutf4ncy

    nastybutf4ncy Active Member

    Joined:
    Jun 25, 2017
    Messages:
    526
    Likes Received:
    26
    thanks
     
  19. David_DESP

    David_DESP Member

    Joined:
    Oct 18, 2015
    Messages:
    118
    Likes Received:
    6
    Gracias
     
  20. snake1

    snake1 Member

    Joined:
    Sep 30, 2017
    Messages:
    131
    Likes Received:
    0
    Can you release the download link?
     
  21. snake1

    snake1 Member

    Joined:
    Sep 30, 2017
    Messages:
    131
    Likes Received:
    0
    Can you release the download link?