CC Goo Goo Dolls - Iris (PARAMOUNTHD-1080i-DD2.0-CELOBRAZiL) [CC]-HDMania

Discussion in 'PARAMOUNT' started by Snorom6, Jun 7, 2016.

  1. Snorom6

    Snorom6 Well-Known Member V . I . P. Uploader

    Joined:
    Dec 17, 2015
    Messages:
    4,247
    Likes Received:
    4,880
    Goo Goo Dolls - Iris (PARAMOUNTHD-1080i-DD2.0-CELOBRAZiL) [CC]-HDMania


    [​IMG]


    Code:
    General
    ID                             : 1 (0x1)
    Complete name                  : Goo Goo Dolls - Iris (PARAMOUNTHD-1080i-DD2.0-CELOBRAZiL) [CC]-HDMania.ts
    Format                         : MPEG-TS
    File size                      : 188 MiB
    Duration                       : 3mn 33s
    Overall bit rate mode          : Variable
    Overall bit rate               : 7 391 Kbps
    
    Video
    ID                             : 4624 (0x1210)
    Menu ID                        : 658 (0x292)
    Format                         : AVC
    Format/Info                    : Advanced Video Codec
    Format profile                 : [email protected]
    Format settings, CABAC         : Yes
    Format settings, ReFrames      : 3 frames
    Codec ID                       : 27
    Duration                       : 3mn 33s
    Bit rate                       : 6 637 Kbps
    Width                          : 1 920 pixels
    Height                         : 1 080 pixels
    Display aspect ratio           : 16:9
    Frame rate                     : 29.970 fps
    Color space                    : YUV
    Chroma subsampling             : 4:2:0
    Bit depth                      : 8 bits
    Scan type                      : MBAFF
    Scan order                     : Top Field First
    Bits/(Pixel*Frame)             : 0.107
    Stream size                    : 169 MiB (90%)
    
    Audio #1
    ID                             : 4625 (0x1211)
    Menu ID                        : 658 (0x292)
    Format                         : AC-3
    Format/Info                    : Audio Coding 3
    Mode extension                 : CM (complete main)
    Format settings, Endianness    : Big
    Codec ID                       : 129
    Duration                       : 3mn 33s
    Bit rate mode                  : Constant
    Bit rate                       : 192 Kbps
    Channel(s)                     : 2 channels
    Channel positions              : Front: L R
    Sampling rate                  : 48.0 KHz
    Compression mode               : Lossy
    Stream size                    : 4.88 MiB (3%)
    Language                       : Portuguese
    
    Audio #2
    ID                             : 4626 (0x1212)
    Menu ID                        : 658 (0x292)
    Format                         : AC-3
    Format/Info                    : Audio Coding 3
    Mode extension                 : CM (complete main)
    Format settings, Endianness    : Big
    Codec ID                       : 129
    Duration                       : 3mn 33s
    Bit rate mode                  : Constant
    Bit rate                       : 192 Kbps
    Channel(s)                     : 2 channels
    Channel positions              : Front: L R
    Sampling rate                  : 48.0 KHz
    Compression mode               : Lossy
    Stream size                    : 4.88 MiB (3%)
    Language                       : English
    
    Text #1
    ID                             : 4624 (0x1210)-CC1
    Menu ID                        : 658 (0x292)
    Format                         : EIA-608
    Muxing mode                    : SCTE 128 / DTVCC Transport
    Muxing mode, more info         : Muxed in Video #1
    Duration                       : 3mn 33s
    Bit rate mode                  : Constant
    Stream size                    : 0.00 Byte (0%)
    
    Text #2
    ID                             : 4624 (0x1210)-1
    Menu ID                        : 658 (0x292)
    Format                         : EIA-708
    Muxing mode                    : SCTE 128 / DTVCC Transport
    Muxing mode, more info         : Muxed in Video #1
    Duration                       : 3mn 33s
    Bit rate mode                  : Constant
    Stream size                    : 0.00 Byte (0%)
    
    

    Hidden Content:
    You must either reply or click 'Like' to see the hidden information contained here.
    Hidden Content:
    You must either reply or click 'Like' to see the hidden information contained here.
     
    Fernanda, BALT, marekd and 7 others like this.
  2. Jorge Barrionuevo

    Jorge Barrionuevo Well-Known Member

    Joined:
    Jun 9, 2015
    Messages:
    1,251
    Likes Received:
    473
    GRACIAS!
     
  3. luisjose24

    luisjose24 Well-Known Member

    Joined:
    Aug 24, 2016
    Messages:
    306
    Likes Received:
    273
    gracias!
     
  4. tapions

    tapions Active Member

    Joined:
    Aug 30, 2016
    Messages:
    898
    Likes Received:
    70
    gracias
     
  5. danicoteca

    danicoteca Member

    Joined:
    Sep 10, 2016
    Messages:
    161
    Likes Received:
    17
  6. CristianMatias

    CristianMatias HIGH DEFINITION

    Joined:
    Sep 17, 2016
    Messages:
    806
    Likes Received:
    21
    Goo Goo Dolls
     
  7. Praveen867

    Praveen867 Member

    Joined:
    Nov 14, 2016
    Messages:
    531
    Likes Received:
    3
    tyyyyyyyyyyy
     
  8. elevation

    elevation Member

    Joined:
    Nov 29, 2016
    Messages:
    41
    Likes Received:
    1
    thnaks
     
  9. Udriclay

    Udriclay Member

    Joined:
    Dec 3, 2016
    Messages:
    44
    Likes Received:
    0
    Thanks!
     
  10. madomanniaco

    madomanniaco Member

    Joined:
    May 18, 2015
    Messages:
    110
    Likes Received:
    2
    wowwwwwwww
     
  11. alemancha

    alemancha Member

    Joined:
    Apr 5, 2017
    Messages:
    82
    Likes Received:
    6
    Gracias!
     
  12. Zatimi

    Zatimi Active Member

    Joined:
    Aug 27, 2014
    Messages:
    719
    Likes Received:
    131
    thank you
     
  13. axkvf

    axkvf Member

    Joined:
    Jun 4, 2017
    Messages:
    96
    Likes Received:
    2
    thanks