CC Gloria Gaynor - I Will Survive MTVHD 1080i HDTV DD2.0 H.264 CELOBRAZiL-HDMania [CC]

Discussion in 'MTV HD' started by CELOBRAZiL, Oct 11, 2018.

  1. CELOBRAZiL

    CELOBRAZiL Well-Known Member Capper V . I . P. Donor

    Joined:
    Oct 2, 2013
    Messages:
    5,718
    Likes Received:
    18,521
    Gloria Gaynor - I Will Survive MTVHD 1080i HDTV DD2.0 H.264 CELOBRAZiL-HDMania [CC]

    [​IMG]



    Format : MPEG-TS
    File size : 161 MiB
    Duration : 3 min 19 s
    Overall bit rate mode : Variable
    Overall bit rate : 6 755 kb/s
    Law rating : N/A

    Video
    ID : 2760 (0xAC8)
    Menu ID : 5040 (0x13B0)
    Format : AVC
    Format/Info : Advanced Video Codec
    Format profile : High@L4
    Format settings : CABAC / 3 Ref Frames
    Format settings, CABAC : Yes
    Format settings, RefFrames : 3 frames
    Format settings, GOP : M=3, N=30
    Codec ID : 27
    Duration : 3 min 19 s
    Bit rate : 6 227 kb/s
    Width : 1 920 pixels
    Height : 1 080 pixels
    Display aspect ratio : 16:9
    Frame rate : 29.970 (30000/1001) FPS
    Color space : YUV
    Chroma subsampling : 4:2:0
    Bit depth : 8 bits
    Scan type : MBAFF
    Scan type, store method : Interleaved fields
    Scan order : Top Field First
    Bits/(Pixel*Frame) : 0.100
    Stream size : 148 MiB (92%)

    Audio
    ID : 2725 (0xAA5)
    Menu ID : 5040 (0x13B0)
    Format : AC-3
    Format/Info : Audio Coding 3
    Commercial name : Dolby Digital
    Codec ID : 129
    Duration : 3 min 19 s
    Bit rate mode : Constant
    Bit rate : 192 kb/s
    Channel(s) : 2 channels
    Channel layout : L R
    Sampling rate : 48.0 kHz
    Frame rate : 31.250 FPS (1536 SPF)
    Bit depth : 16 bits
    Compression mode : Lossy
    Stream size : 4.56 MiB (3%)
    Language : English
    Service kind : Complete Main

    Text #1
    ID : 2760 (0xAC8)-CC1
    Menu ID : 5040 (0x13B0)
    Format : EIA-608
    Muxing mode : SCTE 128 / DTVCC Transport
    Muxing mode, more info : Muxed in Video #1
    Duration : 3 min 19 s
    Bit rate mode : Constant
    Stream size : 0.00 Byte (0%)
    CaptionServiceName : CC1

    Text #2
    ID : 2760 (0xAC8)-1
    Menu ID : 5040 (0x13B0)
    Format : EIA-708
    Muxing mode : SCTE 128 / DTVCC Transport
    Muxing mode, more info : Muxed in Video #1
    Duration : 3 min 19 s
    Bit rate mode : Constant
    Stream size : 0.00 Byte (0%)


    Link(s):
    Hidden Content:
    You must either reply or click 'Like' to see the hidden information contained here.
     
    Dreamer, rhea, DETOX and 1 other person like this.
  2. CELOBRAZiL

    CELOBRAZiL Well-Known Member Capper V . I . P. Donor

    Joined:
    Oct 2, 2013
    Messages:
    5,718
    Likes Received:
    18,521
  3. ScherzyBoy

    ScherzyBoy Well-Known Member V . I . P. Uploader

    Joined:
    May 14, 2015
    Messages:
    1,139
    Likes Received:
    1,273
  4. DETOX

    DETOX Well-Known Member V . I . P. Uploader

    Joined:
    Feb 20, 2014
    Messages:
    5,318
    Likes Received:
    49,482
    hey hey! thank you so much, celooooooooo! :love::happy:
     
    CELOBRAZiL likes this.
  5. Fabio Barbosa

    Fabio Barbosa Active Member

    Joined:
    Sep 28, 2015
    Messages:
    561
    Likes Received:
    237
    thanks
     
    CELOBRAZiL likes this.
  6. rhea

    rhea Well-Known Member

    Joined:
    Jan 6, 2014
    Messages:
    8,301
    Likes Received:
    1,188
    thank you so much
     
    CELOBRAZiL likes this.
  7. Zatimi

    Zatimi Well-Known Member

    Joined:
    Aug 27, 2014
    Messages:
    933
    Likes Received:
    262
    Thanks a lot
     
    CELOBRAZiL likes this.
  8. junior.ca

    junior.ca Well-Known Member

    Joined:
    Jun 1, 2014
    Messages:
    1,910
    Likes Received:
    99
    obrigado
     
    CELOBRAZiL likes this.