Girls' Generation - Flower Power (SSTV HD) 1080i HDTV

Discussion in 'SSTV HD' started by yukides, Aug 23, 2014.

  1. yukides

    yukides Active Member

    Joined:
    Nov 15, 2013
    Messages:
    160
    Likes Received:
    78
    [​IMG]
    MediaInfo​
    Code:
    General
    ID                                       : 1 (0x1)
    Format                                   : MPEG-TS
    File size                                : 255 MiB
    Duration                                 : 3mn 42s
    Overall bit rate mode                    : Variable
    Overall bit rate                         : 9 592 Kbps
    Maximum Overall bit rate                 : 35.5 Mbps
    
    Video
    ID                                       : 4113 (0x1011)
    Menu ID                                  : 1 (0x1)
    Format                                   : AVC
    Format/Info                              : Advanced Video Codec
    Format profile                           : [email protected]
    Format settings, CABAC                   : Yes
    Format settings, ReFrames                : 4 frames
    Codec ID                                 : 27
    Duration                                 : 3mn 42s
    Bit rate mode                            : Variable
    Bit rate                                 : 8 976 Kbps
    Maximum bit rate                         : 20.0 Mbps
    Width                                    : 1 440 pixels
    Height                                   : 1 080 pixels
    Display aspect ratio                     : 16:9
    Frame rate                               : 29.970 fps
    Standard                                 : Component
    Color space                              : YUV
    Chroma subsampling                       : 4:2:0
    Bit depth                                : 8 bits
    Scan type                                : Interlaced
    Scan order                               : Top Field First
    Bits/(Pixel*Frame)                       : 0.193
    Stream size                              : 238 MiB (94%)
    Color primaries                          : BT.709
    Transfer characteristics                 : BT.709
    Matrix coefficients                      : BT.709
    
    Audio
    ID                                       : 4352 (0x1100)
    Menu ID                                  : 1 (0x1)
    Format                                   : AAC
    Format/Info                              : Advanced Audio Codec
    Format version                           : Version 2
    Format profile                           : LC
    Muxing mode                              : ADTS
    Codec ID                                 : 15
    Duration                                 : 3mn 42s
    Bit rate mode                            : Variable
    Bit rate                                 : 140 Kbps
    Channel(s)                               : 2 channels
    Channel positions                        : Front: L R
    Sampling rate                            : 48.0 KHz
    Compression mode                         : Lossy
    Delay relative to video                  : 106ms
    Stream size                              : 3.73 MiB (1%)
    
    Link:
    Hidden Content:
    You must reply before you can see the hidden data contained here.
     
    joelh20101 and rhea like this.
  2. Loading...


  3. Katheryn

    Katheryn Well-Known Member

    Joined:
    Nov 29, 2013
    Messages:
    994
    Likes Received:
    2,138
    Thank you !
     
  4. rhea

    rhea Well-Known Member

    Joined:
    Jan 6, 2014
    Messages:
    5,193
    Likes Received:
    250
    thanks a lot
     
  5. joelh20101

    joelh20101 Well-Known Member

    Joined:
    Nov 4, 2013
    Messages:
    1,455
    Likes Received:
    131
  6. indreams2011

    indreams2011 Member

    Joined:
    Dec 10, 2014
    Messages:
    663
    Likes Received:
    19
     
  7. Hyrus

    Hyrus Arianator / Selenator / Victorian / LBS* Donor

    Joined:
    Feb 9, 2015
    Messages:
    1,061
    Likes Received:
    519
    Thanks a lot. I love these girls:love:
     
  8. jans1330

    jans1330 New Member

    Joined:
    Aug 21, 2016
    Messages:
    3
    Likes Received:
    0
    Thanks a