Girls Generation - Chocolate Love (Mnet Japan HD)

Discussion in 'MNET' started by yukides, Apr 20, 2014.

  1. yukides

    yukides Active Member

    Joined:
    Nov 15, 2013
    Messages:
    160
    Likes Received:
    74
    Girls Generation - Chocolate Love (Mnet Japan HD)

    [​IMG]
    Code:
    Format                                   : MPEG-TS
    File size                                : 247 MiB
    Duration                                 : 4mn 8s
    Start time                               : UTC 2012-03-17 12:59:55
    End time                                 : UTC 2012-03-17 13:04:00
    Overall bit rate mode                    : Variable
    Overall bit rate                         : 8 346 Kbps
    Network name                             : |¹«Ñù!‰HDŠµùÓ¹
    Original network name                    : Astra 8
    
    Video
    ID                                       : 4099 (0x1003)
    Menu ID                                  : 33426 (0x8292)
    Format                                   : AVC
    Format/Info                              : Advanced Video Codec
    Format profile                           : [email protected]
    Format settings, CABAC                   : Yes
    Format settings, ReFrames                : 4 frames
    Codec ID                                 : 27
    Duration                                 : 4mn 8s
    Bit rate mode                            : Variable
    Bit rate                                 : 7 789 Kbps
    Maximum bit rate                         : 20.0 Mbps
    Width                                    : 1 440 pixels
    Height                                   : 1 080 pixels
    Display aspect ratio                     : 16:9
    Frame rate                               : 29.970 fps
    Standard                                 : Component
    Color space                              : YUV
    Chroma subsampling                       : 4:2:0
    Bit depth                                : 8 bits
    Scan type                                : Interlaced
    Scan order                               : Top Field First
    Bits/(Pixel*Frame)                       : 0.167
    Stream size                              : 231 MiB (93%)
    Color primaries                          : BT.709
    Transfer characteristics                 : BT.709
    Matrix coefficients                      : BT.709
    
    Audio
    ID                                       : 4163 (0x1043)
    Menu ID                                  : 33426 (0x8292)
    Format                                   : AAC
    Format/Info                              : Advanced Audio Codec
    Format version                           : Version 2
    Format profile                           : LC
    Muxing mode                              : ADTS
    Codec ID                                 : 15
    Duration                                 : 4mn 8s
    Bit rate mode                            : Variable
    Bit rate                                 : 144 Kbps
    Channel(s)                               : 2 channels
    Channel positions                        : Front: L R
    Sampling rate                            : 48.0 KHz
    Compression mode                         : Lossy
    Delay relative to video                  : 106ms
    Stream size                              : 4.26 MiB (2%)
    
    Menu
    ID                                       : 1027 (0x403)
    Menu ID                                  : 33426 (0x8292)
    Duration                                 : 4mn 8s
    List                                     : 4099 (0x1003) (AVC) / 4163 (0x1043) (AAC)
    Service name                             : Mnet!!HD
    Service type                             : digital television
    
    Link:
    Hidden Content:
    You must reply before you can see the hidden data contained here.
     
    SiKeTe, Kensing, Dave and 5 others like this.
  2. Loading...


  3. Angus

    Angus Well-Known Member

    Joined:
    Dec 18, 2013
    Messages:
    204
    Likes Received:
    290
    thank :D
     
  4. sundayvvvv

    sundayvvvv Member

    Joined:
    Feb 26, 2014
    Messages:
    94
    Likes Received:
    1
  5. talata

    talata Member

    Joined:
    Nov 14, 2013
    Messages:
    255
    Likes Received:
    5
    So thanks ^^
     
  6. rhea

    rhea Well-Known Member

    Joined:
    Jan 6, 2014
    Messages:
    5,193
    Likes Received:
    250
    thanks
     
  7. Kensing

    Kensing Member

    Joined:
    Dec 27, 2013
    Messages:
    251
    Likes Received:
    0
    Thanks
     
  8. joe

    joe New Member

    Joined:
    Jan 27, 2014
    Messages:
    12
    Likes Received:
    0
    thanks
     
  9. boy

    boy Member

    Joined:
    Dec 19, 2013
    Messages:
    348
    Likes Received:
    10
    thx
     
  10. Oliberg

    Oliberg Member

    Joined:
    Apr 22, 2014
    Messages:
    45
    Likes Received:
    0
    thanks
     
  11. noobster

    noobster Member

    Joined:
    Mar 16, 2014
    Messages:
    126
    Likes Received:
    2
  12. BoogyWoogy

    BoogyWoogy Well-Known Member Donor

    Joined:
    Jan 9, 2014
    Messages:
    1,178
    Likes Received:
    5,419
    Thanks !
     
  13. getteg

    getteg Active Member

    Joined:
    Sep 24, 2014
    Messages:
    520
    Likes Received:
    29
  14. stevestrange

    stevestrange Member

    Joined:
    Sep 5, 2014
    Messages:
    37
    Likes Received:
    1
  15. cfc123

    cfc123 Member

    Joined:
    Nov 30, 2013
    Messages:
    77
    Likes Received:
    1
    many thanks...........
     
  16. lolo.amiens

    lolo.amiens Member

    Joined:
    Dec 30, 2014
    Messages:
    183
    Likes Received:
    0
  17. Dave

    Dave Active Member

    Joined:
    Jun 2, 2015
    Messages:
    475
    Likes Received:
    248
    Thank u
     
  18. Hyrus

    Hyrus Arianator / Selenator / Victorian / LBS* Donor

    Joined:
    Feb 9, 2015
    Messages:
    1,059
    Likes Received:
    515
    Thanks for these beautiful and sexy girls:happy::D
     
  19. Dreamer

    Dreamer ♫ It's Britney Bitch ♫ Capper Uploader

    Joined:
    Dec 4, 2014
    Messages:
    2,130
    Likes Received:
    1,791
    Thank you
     
  20. SiKeTe

    SiKeTe Member

    Joined:
    Jan 9, 2016
    Messages:
    43
    Likes Received:
    0
    Thanks.
     
  21. repj13

    repj13 Member

    Joined:
    Jul 9, 2016
    Messages:
    101
    Likes Received:
    6
    THAAAAAANK YOU FOR THIS