Girl's Day - Something (Mnet Japan HD)

Discussion in 'MNET' started by DETOX, Apr 27, 2014.

  1. DETOX

    DETOX Well-Known Member V . I . P. Uploader

    Joined:
    Feb 20, 2014
    Messages:
    2,788
    Likes Received:
    15,689
    [​IMG]

    General
    ID : 16400 (0x4010)
    Complete name : Something (Mnet Japan HD).ts
    Format : MPEG-TS
    File size : 256 MiB
    Duration : 3mn 46s
    Start time : UTC 2014-02-03 01:09:15
    End time : UTC 2014-02-03 01:12:55
    Overall bit rate mode : Variable
    Overall bit rate : 9 475 Kbps
    Network name : |¹«Ñù!
    Original network name : Astra 8

    Video
    ID : 4100 (0x1004)
    Menu ID : 33426 (0x8292)
    Format : AVC
    Format/Info : Advanced Video Codec
    Format profile : [email protected]
    Format settings, CABAC : Yes
    Format settings, ReFrames : 4 frames
    Format settings, GOP : M=4, N=28
    Codec ID : 27
    Duration : 3mn 45s
    Bit rate mode : Variable
    Bit rate : 8 861 Kbps
    Maximum bit rate : 20.0 Mbps
    Width : 1 440 pixels
    Height : 1 080 pixels
    Display aspect ratio : 16:9
    Frame rate : 29.970 fps
    Standard : Component
    Color space : YUV
    Chroma subsampling : 4:2:0
    Bit depth : 8 bits
    Scan type : Interlaced
    Scan order : Top Field First
    Bits/(Pixel*Frame) : 0.190
    Stream size : 239 MiB (93%)
    Color primaries : BT.709
    Transfer characteristics : BT.709
    Matrix coefficients : BT.709

    Audio
    ID : 4164 (0x1044)
    Menu ID : 33426 (0x8292)
    Format : AAC
    Format/Info : Advanced Audio Codec
    Format version : Version 2
    Format profile : LC
    Muxing mode : ADTS
    Codec ID : 15
    Duration : 3mn 46s
    Bit rate mode : Variable
    Bit rate : 144 Kbps
    Channel(s) : 2 channels
    Channel positions : Front: L R
    Sampling rate : 48.0 KHz
    Compression mode : Lossy
    Delay relative to video : 123ms
    Stream size : 3.88 MiB (2%)

    Menu
    ID : 1028 (0x404)
    Menu ID : 33426 (0x8292)
    Duration : 3mn 46s
    List : 4100 (0x1004) (AVC) / 4164 (0x1044) (AAC)
    Service name : Mnet!!HD
    Service type : digital television


    DOWNLOAD:

    MEGA

    Hidden Content:
    You must reply before you can see the hidden data contained here.
    Password: DETOX
     
    rhea likes this.
  2. Loading...


  3. rhea

    rhea Well-Known Member

    Joined:
    Jan 6, 2014
    Messages:
    5,550
    Likes Received:
    312
    thanks
     
  4. slill

    slill Member

    Joined:
    Jul 25, 2014
    Messages:
    929
    Likes Received:
    11
    thanks for sharing
     
  5. gstnedgrdrch93

    gstnedgrdrch93 Member

    Joined:
    Oct 12, 2014
    Messages:
    50
    Likes Received:
    1
     
  6. indreams2011

    indreams2011 Member

    Joined:
    Dec 10, 2014
    Messages:
    663
    Likes Received:
    19
  7. Dreamer

    Dreamer Lana Del Rey ♥ Capper Uploader

    Joined:
    Dec 4, 2014
    Messages:
    2,391
    Likes Received:
    2,420
    Thank you
     
  8. Stellar

    Stellar New Member

    Joined:
    Jan 15, 2016
    Messages:
    1
    Likes Received:
    0
    thanks
     
  9. faz

    faz Member

    Joined:
    Jan 9, 2014
    Messages:
    258
    Likes Received:
    1
    thank you......
     
  10. tranmanduy

    tranmanduy Member

    Joined:
    Jan 5, 2017
    Messages:
    64
    Likes Received:
    2