Girl's Day - Female President (Mnet Japan HD)

Discussion in 'MNET' started by DETOX, Apr 27, 2014.

  1. DETOX

    DETOX K-POP fan ♡ VIXX V . I . P. Uploader

    Joined:
    Feb 20, 2014
    Messages:
    3,337
    Likes Received:
    23,747
    [​IMG]

    General
    ID : 16400 (0x4010)
    Complete name : Female President (Mnet Japan HD).ts
    Format : MPEG-TS
    File size : 231 MiB
    Duration : 3mn 37s
    Start time : UTC 2014-01-15 21:39:00
    End time : UTC 2014-01-15 21:42:30
    Overall bit rate mode : Variable
    Overall bit rate : 8 923 Kbps
    Network name : |¹«Ñù!
    Original network name : Astra 8

    Video
    ID : 4100 (0x1004)
    Menu ID : 33426 (0x8292)
    Format : AVC
    Format/Info : Advanced Video Codec
    Format profile : [email protected]
    Format settings, CABAC : Yes
    Format settings, ReFrames : 4 frames
    Codec ID : 27
    Duration : 3mn 36s
    Bit rate mode : Variable
    Bit rate : 8 336 Kbps
    Maximum bit rate : 20.0 Mbps
    Width : 1 440 pixels
    Height : 1 080 pixels
    Display aspect ratio : 16:9
    Frame rate : 29.970 fps
    Standard : Component
    Color space : YUV
    Chroma subsampling : 4:2:0
    Bit depth : 8 bits
    Scan type : Interlaced
    Scan order : Top Field First
    Bits/(Pixel*Frame) : 0.179
    Stream size : 215 MiB (93%)
    Color primaries : BT.709
    Transfer characteristics : BT.709
    Matrix coefficients : BT.709

    Audio
    ID : 4164 (0x1044)
    Menu ID : 33426 (0x8292)
    Format : AAC
    Format/Info : Advanced Audio Codec
    Format version : Version 2
    Format profile : LC
    Muxing mode : ADTS
    Codec ID : 15
    Duration : 3mn 37s
    Bit rate mode : Variable
    Bit rate : 144 Kbps
    Channel(s) : 2 channels
    Channel positions : Front: L R
    Sampling rate : 48.0 KHz
    Compression mode : Lossy
    Delay relative to video : 90ms
    Stream size : 3.73 MiB (2%)

    Menu
    ID : 1028 (0x404)
    Menu ID : 33426 (0x8292)
    Duration : 3mn 37s
    List : 4100 (0x1004) (AVC) / 4164 (0x1044) (AAC)
    Service name : Mnet!!HD
    Service type : digital television


    DOWNLOAD:

    MEGA

    Hidden Content:
    You must reply before you can see the hidden data contained here.
    Password: DETOX
     
    rhea likes this.
  2. Loading...

    Similar Threads
    1. DETOX
      Replies:
      8
      Views:
      833

  3. rhea

    rhea Well-Known Member

    Joined:
    Jan 6, 2014
    Messages:
    6,637
    Likes Received:
    683
    thanks
     
  4. Cesar

    Cesar Member

    Joined:
    Nov 11, 2013
    Messages:
    416
    Likes Received:
    13
    thanks
     
  5. slill

    slill Active Member

    Joined:
    Jul 25, 2014
    Messages:
    1,064
    Likes Received:
    15
    thanks for sharing
     
  6. gstnedgrdrch93

    gstnedgrdrch93 Member

    Joined:
    Oct 12, 2014
    Messages:
    55
    Likes Received:
    1
     
  7. stevestrange

    stevestrange Member

    Joined:
    Sep 5, 2014
    Messages:
    37
    Likes Received:
    2
  8. quake2

    quake2 Well-Known Member

    Joined:
    Oct 11, 2014
    Messages:
    1,036
    Likes Received:
    56
  9. limonato

    limonato Member

    Joined:
    Dec 1, 2014
    Messages:
    206
    Likes Received:
    4
  10. indreams2011

    indreams2011 Member

    Joined:
    Dec 10, 2014
    Messages:
    663
    Likes Received:
    19