Giorgio Moroder - Right Here, Right Now ft. Kylie Minogue (Bis.HD.1080i.DD5.1).-Crusha

Discussion in 'BIS HD' started by Crusha, May 11, 2015.

  1. Crusha

    Crusha Well-Known Member Capper

    Joined:
    Oct 15, 2014
    Messages:
    2,349
    Likes Received:
    2,074
    [​IMG]

    General
    ID : 1 (0x1)
    Complete name : C:\Users\SONGOKU\Videos\Giorgio Moroder - Right Here, Right Now ft. Kylie Minogue (Bis.HD.1080i.DD5.1).-Crusha.ts
    Format : MPEG-TS
    File size : 94.4 MiB
    Duration : 3mn 26s
    Overall bit rate mode : Variable
    Overall bit rate : 3 834 Kbps

    Video
    ID : 2027 (0x7EB)
    Menu ID : 802 (0x322)
    Format : AVC
    Format/Info : Advanced Video Codec
    Format profile : [email protected]
    Format settings, CABAC : Yes
    Format settings, ReFrames : 4 frames
    Codec ID : 27
    Duration : 3mn 26s
    Bit rate : 3 256 Kbps
    Width : 1 920 pixels
    Height : 1 080 pixels
    Display aspect ratio : 16:9
    Frame rate : 29.970 fps
    Standard : Component
    Color space : YUV
    Chroma subsampling : 4:2:0
    Bit depth : 8 bits
    Scan type : MBAFF
    Scan order : Top Field First
    Bits/(Pixel*Frame) : 0.052
    Stream size : 80.1 MiB (85%)
    Color primaries : BT.709
    Transfer characteristics : BT.709
    Matrix coefficients : BT.709
    Color range : Limited

    Audio
    ID : 3027 (0xBD3)
    Menu ID : 802 (0x322)
    Format : AC-3
    Format/Info : Audio Coding 3
    Mode extension : CM (complete main)
    Format settings, Endianness : Big
    Codec ID : 6
    Duration : 3mn 26s
    Bit rate mode : Constant
    Bit rate : 384 Kbps
    Channel(s) : 6 channels
    Channel positions : Front: L C R, Side: L R, LFE
    Sampling rate : 48.0 KHz
    Bit depth : 16 bits
    Compression mode : Lossy
    Stream size : 9.45 MiB (10%)
    Language : English

    Hidden Content:
    You must either reply or click 'Like' to see the hidden information contained here.
    Password: crusha

    Cap by Me :D
     
    Last edited: May 11, 2015
    wolf2015, Godwinson and rhea like this.
  2. rhea

    rhea Well-Known Member

    Joined:
    Jan 6, 2014
    Messages:
    5,193
    Likes Received:
    250
    thank you so much
     
  3. Zatimi

    Zatimi Active Member

    Joined:
    Aug 27, 2014
    Messages:
    589
    Likes Received:
    57
    thanks a lot
     
  4. allisee

    allisee Member

    Joined:
    Feb 5, 2014
    Messages:
    168
    Likes Received:
    3
    thank you
     
  5. multimediafm

    multimediafm Well-Known Member Donor

    Joined:
    Mar 27, 2014
    Messages:
    8,058
    Likes Received:
    320
    Thanks :)
    Giorgio Moroder - Right Here, Right Now ft. Kylie Minogue (Bis.HD.1080i.DD5.1).-Crusha
     
  6. femmemonsters

    femmemonsters Member

    Joined:
    Oct 8, 2015
    Messages:
    303
    Likes Received:
    9
    thank you
     
  7. limonato

    limonato Member

    Joined:
    Dec 1, 2014
    Messages:
    159
    Likes Received:
    0
    thank you
     
  8. giddeon85

    giddeon85 Member

    Joined:
    Aug 5, 2016
    Messages:
    261
    Likes Received:
    9
    thank you!