DVD Ginuwine - I'll Do Anything, I'm Sorry (Feat. Timbaland) (Clean) [VOB]

Discussion in 'SD' started by claudio1301, Oct 20, 2020.

  1. claudio1301

    claudio1301 Well-Known Member V . I . P.

    Joined:
    Oct 2, 2018
    Messages:
    1,477
    Likes Received:
    3,326
    [​IMG]
    Code:
    General
    Complete name                  : Ginuwine - I'll Do Anything, I'm Sorry (Feat. Timbaland) (Clean).vob
    Format                         : MPEG-PS
    File size                      : 265 MiB
    Duration                       : 4 min 12 s
    Overall bit rate mode          : Variable
    Overall bit rate               : 8 798 kb/s
    
    Video
    ID                             : 224 (0xE0)
    Format                         : MPEG Video
    Format version                 : Version 2
    Format profile                 : Main@Main
    Format settings                : CustomMatrix / BVOP
    Format settings, BVOP          : Yes
    Format settings, Matrix        : Custom
    Format settings, GOP           : M=3, N=15
    Format settings, picture struc : Frame
    Duration                       : 4 min 12 s
    Bit rate mode                  : Variable
    Bit rate                       : 6 639 kb/s
    Maximum bit rate               : 8 000 kb/s
    Width                          : 720 pixels
    Height                         : 480 pixels
    Display aspect ratio           : 4:3
    Frame rate                     : 29.970 (30000/1001) FPS
    Standard                       : NTSC
    Color space                    : YUV
    Chroma subsampling             : 4:2:0
    Bit depth                      : 8 bits
    Scan type                      : Interlaced
    Scan order                     : Top Field First
    Compression mode               : Lossy
    Bits/(Pixel*Frame)             : 0.641
    Time code of first frame       : 01:35:03:21
    Time code source               : Group of pictures header
    GOP, Open/Closed               : Closed
    Stream size                    : 200 MiB (75%)
    
    Audio #1
    ID                             : 189 (0xBD)-129 (0x81)
    Format                         : AC-3
    Format/Info                    : Audio Coding 3
    Commercial name                : Dolby Digital
    Muxing mode                    : DVD-Video
    Duration                       : 4 min 12 s
    Bit rate mode                  : Constant
    Bit rate                       : 448 kb/s
    Channel(s)                     : 6 channels
    Channel layout                 : L R C LFE Ls Rs
    Sampling rate                  : 48.0 kHz
    Frame rate                     : 31.250 FPS (1536 SPF)
    Compression mode               : Lossy
    Delay relative to video        : -149 ms
    Stream size                    : 13.5 MiB (5%)
    Service kind                   : Complete Main
    
    Audio #2
    ID                             : 189 (0xBD)-160 (0xA0)
    Format                         : PCM
    Format settings                : Big / Signed
    Muxing mode                    : DVD-Video
    Duration                       : 4 min 12 s
    Bit rate mode                  : Constant
    Bit rate                       : 1 536 kb/s
    Channel(s)                     : 2 channels
    Sampling rate                  : 48.0 kHz
    Bit depth                      : 16 bits
    Delay relative to video        : -213 ms
    Stream size                    : 46.3 MiB (17%)
    
    Text
    ID                             : 189 (0xBD)-32 (0x20)
    Format                         : RLE
    Format/Info                    : Run-length encoding
    Muxing mode                    : DVD-Video
    Delay relative to video        : 634 ms
    
    Menu
    Host: Mediafire
    Hidden Content:
    You must reply before you can see the hidden data contained here.
     
  2. Loading...


  3. tegibu

    tegibu Well-Known Member

    Joined:
    Jan 9, 2018
    Messages:
    719
    Likes Received:
    511
    thanks