George Ezra - Blame It On Me (BIS.HD.1080i.DD5.1).-Crusha

Discussion in 'BIS HD' started by Crusha, Sep 7, 2015.

  1. Crusha

    Crusha Well-Known Member Capper

    Joined:
    Oct 15, 2014
    Messages:
    2,350
    Likes Received:
    2,252
    [​IMG]

    Mediainfo:
    General
    ID : 1 (0x1)
    Complete name : George Ezra - Blame It On Me (BIS.HD.1080i.DD5.1).-Crusha.ts
    Format : MPEG-TS
    File size : 79.8 MiB
    Duration : 3mn 15s
    Overall bit rate mode : Variable
    Overall bit rate : 3 430 Kbps

    Video
    ID : 2027 (0x7EB)
    Menu ID : 802 (0x322)
    Format : AVC
    Format/Info : Advanced Video Codec
    Format profile : [email protected]
    Format settings, CABAC : Yes
    Format settings, ReFrames : 4 frames
    Format settings, GOP : M=8, N=32
    Codec ID : 27
    Duration : 3mn 15s
    Bit rate : 2 873 Kbps
    Width : 1 920 pixels
    Height : 1 080 pixels
    Display aspect ratio : 16:9
    Frame rate : 29.970 fps
    Standard : Component
    Color space : YUV
    Chroma subsampling : 4:2:0
    Bit depth : 8 bits
    Scan type : MBAFF
    Scan order : Top Field First
    Bits/(Pixel*Frame) : 0.046
    Stream size : 66.8 MiB (84%)
    Color range : Limited
    Color primaries : BT.709
    Transfer characteristics : BT.709
    Matrix coefficients : BT.709

    Audio
    ID : 3027 (0xBD3)
    Menu ID : 802 (0x322)
    Format : AC-3
    Format/Info : Audio Coding 3
    Mode extension : CM (complete main)
    Format settings, Endianness : Big
    Codec ID : 6
    Duration : 3mn 15s
    Bit rate mode : Constant
    Bit rate : 384 Kbps
    Channel(s) : 6 channels
    Channel positions : Front: L C R, Side: L R, LFE
    Sampling rate : 48.0 KHz
    Bit depth : 16 bits
    Compression mode : Lossy
    Stream size : 8.93 MiB (11%)
    Language : English

    Hidden Content:
    You must either reply or click 'Like' to see the hidden information contained here.
    Password: crusha

    Cap By Me :)
     
    NikoZeman likes this.
  2. limonato

    limonato Member

    Joined:
    Dec 1, 2014
    Messages:
    205
    Likes Received:
    3
    thank you
     
  3. Talys Cidreira

    Talys Cidreira Member

    Joined:
    Mar 9, 2015
    Messages:
    80
    Likes Received:
    13
    Thank you
     
  4. NikoZeman

    NikoZeman Member

    Joined:
    Nov 23, 2016
    Messages:
    46
    Likes Received:
    1
    Beautiful Song