SERIES Game of Thrones - Season 8 [1080p AMZN.WEB-DL DDP5.1 H.264]

Discussion in 'Cinema Center' started by Beans121, Apr 15, 2019.

  1. Beans121

    Beans121 New Member

    Joined:
    Sep 8, 2018
    Messages:
    22
    Likes Received:
    10
    [​IMG]
    [​IMG]
    [​IMG]

    Code:
    Format                                   : Matroska
    
    Format version                           : Version 4
    
    File size                                : 2.82 GiB
    
    Duration                                 : 55 min 47 s
    
    Overall bit rate                         : 7 233 kb/s
    
    Encoded date                             : UTC 2019-04-15 01:12:52
    
    Writing application                      : mkvmerge v32.0.0 ('Astral Progressions') 64-bit
    
    Writing library                          : libebml v1.3.7 + libmatroska v1.5.0
    
    
    
    Video
    
    ID                                       : 1
    
    Format                                   : AVC
    
    Format/Info                              : Advanced Video Codec
    
    Format profile                           : High@L4
    
    Format settings                          : CABAC / 4 Ref Frames
    
    Format settings, CABAC                   : Yes
    
    Format settings, RefFrames               : 4 frames
    
    Codec ID                                 : V_MPEG4/ISO/AVC
    
    Duration                                 : 55 min 45 s
    
    Bit rate mode                            : Constant
    
    Bit rate                                 : 6 596 kb/s
    
    Nominal bit rate                         : 10 000 kb/s
    
    Width                                    : 1 920 pixels
    
    Height                                   : 1 080 pixels
    
    Display aspect ratio                     : 16:9
    
    Frame rate mode                          : Constant
    
    Frame rate                               : 23.976 (24000/1001) FPS
    
    Color space                              : YUV
    
    Chroma subsampling                       : 4:2:0
    
    Bit depth                                : 8 bits
    
    Scan type                                : Progressive
    
    Bits/(Pixel*Frame)                       : 0.133
    
    Stream size                              : 2.57 GiB (91%)
    
    Default                                  : Yes
    
    Forced                                   : No
    
    Color range                              : Limited
    
    Color primaries                          : BT.709
    
    Transfer characteristics                 : BT.709
    
    Matrix coefficients                      : BT.709
    
    
    
    Audio
    
    ID                                       : 2
    
    Format                                   : E-AC-3
    
    Format/Info                              : Enhanced AC-3
    
    Commercial name                          : Dolby Digital Plus
    
    Codec ID                                 : A_EAC3
    
    Duration                                 : 55 min 45 s
    
    Bit rate mode                            : Constant
    
    Bit rate                                 : 640 kb/s
    
    Channel(s)                               : 6 channels
    
    Channel layout                           : L R C LFE Ls Rs
    
    Sampling rate                            : 48.0 kHz
    
    Frame rate                               : 31.250 FPS (1536 SPF)
    
    Compression mode                         : Lossy
    
    Delay relative to video                  : 8 ms
    
    Stream size                              : 255 MiB (9%)
    
    Language                                 : English
    
    Service kind                             : Complete Main
    
    Default                                  : Yes
    
    Forced                                   : No
    Download Server - MEGA

    Hidden Content:
    You must reply before you can see the hidden data contained here.
    -----------------------------------------------------------------------------------


     
  2. Loading...


  3. Isager22

    Isager22 Music Lover

    Joined:
    Mar 27, 2017
    Messages:
    557
    Likes Received:
    2,102
    Your first post? AMAZING!! :love:
     
  4. vacaboyx

    vacaboyx Member

    Joined:
    Sep 4, 2017
    Messages:
    50
    Likes Received:
    4
    thank you :)))
     
  5. ThePixelFarm

    ThePixelFarm Livin' in a dream... Capper

    Joined:
    Aug 31, 2018
    Messages:
    892
    Likes Received:
    1,305
    Many thanks... (and Welcome...)
     
  6. SarinaSabrina

    SarinaSabrina New Member

    Joined:
    Dec 11, 2016
    Messages:
    24
    Likes Received:
    1
    thank you ♥
     
  7. kahlanamnell

    kahlanamnell New Member

    Joined:
    Nov 17, 2018
    Messages:
    11
    Likes Received:
    0
    Thank you!
     
  8. dovelover

    dovelover New Member

    Joined:
    Oct 24, 2018
    Messages:
    15
    Likes Received:
    2
  9. gelbma0991

    gelbma0991 Member

    Joined:
    Mar 15, 2017
    Messages:
    201
    Likes Received:
    9
    ahhhh tahnks!
     
  10. Ross

    Ross Active Member

    Joined:
    Oct 19, 2014
    Messages:
    701
    Likes Received:
    81
    Thanks
     
  11. selenagomez23

    selenagomez23 Member

    Joined:
    Aug 20, 2016
    Messages:
    388
    Likes Received:
    5
  12. Bouncer

    Bouncer Active Member

    Joined:
    Jan 5, 2016
    Messages:
    724
    Likes Received:
    25
    tks tks
     
  13. synchronicity

    synchronicity New Member

    Joined:
    Jan 3, 2017
    Messages:
    4
    Likes Received:
    0
    Thank you!
     
  14. Condronegoro

    Condronegoro New Member

    Joined:
    Feb 25, 2017
    Messages:
    16
    Likes Received:
    0
    For a reall????? Thanku!!!!
     
  15. NitaV21

    NitaV21 New Member

    Joined:
    Apr 27, 2019
    Messages:
    3
    Likes Received:
    0
    Thank you for this!!
    [​IMG]
    [​IMG]
    [​IMG]

    Code:
    Format                                   : Matroska
    
    Format version                           : Version 4
    
    File size                                : 2.82 GiB
    
    Duration                                 : 55 min 47 s
    
    Overall bit rate                         : 7 233 kb/s
    
    Encoded date                             : UTC 2019-04-15 01:12:52
    
    Writing application                      : mkvmerge v32.0.0 ('Astral Progressions') 64-bit
    
    Writing library                          : libebml v1.3.7 + libmatroska v1.5.0
    
    
    
    Video
    
    ID                                       : 1
    
    Format                                   : AVC
    
    Format/Info                              : Advanced Video Codec
    
    Format profile                           : High@L4
    
    Format settings                          : CABAC / 4 Ref Frames
    
    Format settings, CABAC                   : Yes
    
    Format settings, RefFrames               : 4 frames
    
    Codec ID                                 : V_MPEG4/ISO/AVC
    
    Duration                                 : 55 min 45 s
    
    Bit rate mode                            : Constant
    
    Bit rate                                 : 6 596 kb/s
    
    Nominal bit rate                         : 10 000 kb/s
    
    Width                                    : 1 920 pixels
    
    Height                                   : 1 080 pixels
    
    Display aspect ratio                     : 16:9
    
    Frame rate mode                          : Constant
    
    Frame rate                               : 23.976 (24000/1001) FPS
    
    Color space                              : YUV
    
    Chroma subsampling                       : 4:2:0
    
    Bit depth                                : 8 bits
    
    Scan type                                : Progressive
    
    Bits/(Pixel*Frame)                       : 0.133
    
    Stream size                              : 2.57 GiB (91%)
    
    Default                                  : Yes
    
    Forced                                   : No
    
    Color range                              : Limited
    
    Color primaries                          : BT.709
    
    Transfer characteristics                 : BT.709
    
    Matrix coefficients                      : BT.709
    
    
    
    Audio
    
    ID                                       : 2
    
    Format                                   : E-AC-3
    
    Format/Info                              : Enhanced AC-3
    
    Commercial name                          : Dolby Digital Plus
    
    Codec ID                                 : A_EAC3
    
    Duration                                 : 55 min 45 s
    
    Bit rate mode                            : Constant
    
    Bit rate                                 : 640 kb/s
    
    Channel(s)                               : 6 channels
    
    Channel layout                           : L R C LFE Ls Rs
    
    Sampling rate                            : 48.0 kHz
    
    Frame rate                               : 31.250 FPS (1536 SPF)
    
    Compression mode                         : Lossy
    
    Delay relative to video                  : 8 ms
    
    Stream size                              : 255 MiB (9%)
    
    Language                                 : English
    
    Service kind                             : Complete Main
    
    Default                                  : Yes
    
    Forced                                   : No
    Download Server - MEGA

    ***Hidden content cannot be quoted.***

    ----------------------------------------------------------------------​
     
  16. kesh1000

    kesh1000 Member

    Joined:
    May 5, 2014
    Messages:
    106
    Likes Received:
    2
    Thank you!
     
  17. SweetHeart23

    SweetHeart23 Member

    Joined:
    Aug 2, 2017
    Messages:
    185
    Likes Received:
    15
    Thank you :love:
     
  18. zetorg

    zetorg Member

    Joined:
    Oct 9, 2017
    Messages:
    34
    Likes Received:
    2
    thanks
     
  19. princebasil

    princebasil Active Member

    Joined:
    Jul 4, 2017
    Messages:
    724
    Likes Received:
    68
    Thank you!
     
  20. efufoo

    efufoo New Member

    Joined:
    Oct 27, 2018
    Messages:
    10
    Likes Received:
    0
    thx dude!
     
  21. Robyn

    Robyn Member

    Joined:
    Oct 18, 2016
    Messages:
    118
    Likes Received:
    7
    thanks