MASTER French Montana - No Stylist (feat. Drake) [MASTER AAC 1080p]

Discussion in 'MASTER & MASTER RIP' started by Hossein Enr7que, Jun 19, 2019.

  1. Hossein Enr7que

    Hossein Enr7que Enriquette . ZQUAD . XO V . I . P. Uploader

    Joined:
    May 13, 2016
    Messages:
    1,618
    Likes Received:
    7,335
    [​IMG]
    Code:
    General
    Complete name                  : D:\French Montana - No Stylist (feat. Drake) [MASTER AAC 1080p].mp4
    Format                         : MPEG-4
    Format profile                 : Base Media / Version 2
    Codec ID                       : mp42 (mp42/mp41)
    File size                      : 637 MiB
    Duration                       : 3 min 31 s
    Overall bit rate mode          : Variable
    Overall bit rate               : 25.3 Mb/s
    Encoded date                   : UTC 2019-04-11 20:10:08
    Tagged date                    : UTC 2019-04-11 20:10:36
    TIM                            : 01:00:00:00
    TSC                            : 24
    TSZ                            : 1
    
    Video
    ID                             : 1
    Format                         : AVC
    Format/Info                    : Advanced Video Codec
    Format profile                 : Main@L4.1
    Format settings                : CABAC / 4 Ref Frames
    Format settings, CABAC         : Yes
    Format settings, ReFrames      : 4 frames
    Codec ID                       : avc1
    Codec ID/Info                  : Advanced Video Coding
    Duration                       : 3 min 31 s
    Bit rate                       : 25.0 Mb/s
    Width                          : 1 920 pixels
    Height                         : 1 080 pixels
    Display aspect ratio           : 16:9
    Frame rate mode                : Constant
    Frame rate                     : 24.000 FPS
    Color space                    : YUV
    Chroma subsampling             : 4:2:0
    Bit depth                      : 8 bits
    Scan type                      : Progressive
    Bits/(Pixel*Frame)             : 0.501
    Stream size                    : 628 MiB (99%)
    Language                       : English
    Encoded date                   : UTC 2019-04-11 20:10:08
    Tagged date                    : UTC 2019-04-11 20:10:08
    Color range                    : Limited
    Color primaries                : BT.709
    Transfer characteristics       : BT.709
    Matrix coefficients            : BT.709
    Codec configuration box        : avcC
    
    Audio
    ID                             : 2
    Format                         : AAC LC
    Format/Info                    : Advanced Audio Codec Low Complexity
    Codec ID                       : mp4a-40-2
    Duration                       : 3 min 31 s
    Source duration                : 3 min 31 s
    Bit rate mode                  : Variable
    Bit rate                       : 317 kb/s
    Maximum bit rate               : 453 kb/s
    Channel(s)                     : 2 channels
    Channel layout                 : L R
    Sampling rate                  : 48.0 kHz
    Frame rate                     : 46.875 FPS (1024 SPF)
    Compression mode               : Lossy
    Stream size                    : 7.99 MiB (1%)
    Source stream size             : 7.99 MiB (1%)
    Language                       : English
    Encoded date                   : UTC 2019-04-11 20:10:08
    Tagged date                    : UTC 2019-04-11 20:10:08
    Server: MEGA , drive.google.com
    Hidden Content:
    You must either reply or click 'Like' to see the hidden information contained here.

     
  2. Loading...


  3. xoxxxoooxo

    xoxxxoooxo Active Member

    Joined:
    May 28, 2018
    Messages:
    267
    Likes Received:
    154
    thanks!!
     
  4. tegibu

    tegibu Well-Known Member

    Joined:
    Jan 9, 2018
    Messages:
    462
    Likes Received:
    300
    thanks
     
  5. Christian Antichrist

    Christian Antichrist Member

    Joined:
    Jan 3, 2016
    Messages:
    313
    Likes Received:
    4