Florida Georgia Line - Sun Daze (CMTHD) 1080i H.264 DD2.0-HDMania

Discussion in 'CMT HD' started by rgf72k, Jan 25, 2015.

  1. rgf72k

    rgf72k Founder Staff Member AdMiN Capper Uploader

    Joined:
    Oct 1, 2013
    Messages:
    1,080
    Likes Received:
    16,244
    [​IMG] [​IMG] [​IMG] [​IMG] [​IMG] [​IMG] [​IMG] [​IMG] [​IMG]

    General
    ID : 1 (0x1)
    Complete name : Florida Georgia Line - Sun Daze (CMTHD) 1080i H.264 DD2.0-HDMania.ts
    Format : MPEG-TS
    File size : 460 MiB
    Duration : 4mn 31s
    Overall bit rate mode : Variable
    Overall bit rate : 14.2 Mbps

    Video
    ID : 4113 (0x1011)
    Menu ID : 1 (0x1)
    Format : AVC
    Format/Info : Advanced Video Codec
    Format profile : [email protected]
    Format settings, CABAC : Yes
    Format settings, ReFrames : 4 frames
    Codec ID : 27
    Duration : 4mn 31s
    Bit rate mode : Variable
    Bit rate : 13.1 Mbps
    Maximum bit rate : 20.0 Mbps
    Width : 1 920 pixels
    Height : 1 080 pixels
    Display aspect ratio : 16:9
    Frame rate : 29.970 fps
    Color space : YUV
    Chroma subsampling : 4:2:0
    Bit depth : 8 bits
    Scan type : Interlaced
    Scan order : Top Field First
    Bits/(Pixel*Frame) : 0.211
    Stream size : 425 MiB (92%)
    Color primaries : BT.709
    Transfer characteristics : BT.709
    Matrix coefficients : BT.709
    Color range : Limited

    Audio
    ID : 4352 (0x1100)
    Menu ID : 1 (0x1)
    Format : AC-3
    Format/Info : Audio Coding 3
    Mode extension : CM (complete main)
    Format settings, Endianness : Big
    Codec ID : 129
    Duration : 4mn 31s
    Bit rate mode : Constant
    Bit rate : 384 Kbps
    Channel(s) : 2 channels
    Channel positions : Front: L R
    Sampling rate : 48.0 KHz
    Bit depth : 16 bits
    Compression mode : Lossy
    Stream size : 12.4 MiB (3%)
    Language : English

    Download:
    Hidden Content:
    You must either reply or click 'Like' to see the hidden information contained here.
    Capped by Me :victory:
     
    NiceBoy, revilo18, CELOBRAZiL and 2 others like this.
  2. rhea

    rhea Well-Known Member

    Joined:
    Jan 6, 2014
    Messages:
    6,956
    Likes Received:
    755
    thank you so much
     
  3. 777josem

    777josem ProRes 1080p LPCM V . I . P. Uploader

    Joined:
    Sep 1, 2014
    Messages:
    3,707
    Likes Received:
    2,933
    Thank you! :)
     
  4. valtersc

    valtersc Active Member

    Joined:
    Nov 19, 2014
    Messages:
    256
    Likes Received:
    195
    Thanks for share!
     
  5. dgnio

    dgnio Well-Known Member

    Joined:
    Jul 7, 2014
    Messages:
    1,839
    Likes Received:
    437
    thanks thanks very very much!!!plz keep more uploading music videos from country music cmt channel and axstv and gac plz
     
    multimediafm likes this.
  6. multimediafm

    multimediafm Well-Known Member Donor

    Joined:
    Mar 27, 2014
    Messages:
    10,639
    Likes Received:
    633
    Thanks :love:
    Florida Georgia Line - Sun Daze (CMTHD) 1080i H.264 DD2.0-HDMania
     
  7. limonato

    limonato Member

    Joined:
    Dec 1, 2014
    Messages:
    206
    Likes Received:
    4
    thank you