Fifth Harmony - Work From Home (VEVOtv HDTV-1080i 30Mbps) Danixat-HDMania

Discussion in 'VEVOtv' started by danixat, Mar 25, 2016.

  1. danixat

    danixat Katycat ^-^ Capper V . I . P. Donor

    Joined:
    Feb 23, 2014
    Messages:
    1,145
    Likes Received:
    6,160
    [​IMG]
    [​IMG]
    [​IMG]
    [​IMG]
    Code:
    General
    ID                             : 1 (0x1)
    Complete name                  : K:\Fifth Harmony - Work From Home (VEVOtv HDTV-1080i 30Mbps) Danixat-HDMania.ts
    Format                         : MPEG-TS
    File size                      : 801 MiB
    Duration                       : 3mn 39s
    Overall bit rate mode          : Variable
    Overall bit rate               : 30.7 Mbps
    
    Video
    ID                             : 100 (0x64)
    Menu ID                        : 2 (0x2)
    Format                         : AVC
    Format/Info                    : Advanced Video Codec
    Format profile                 : [email protected]
    Format settings, CABAC         : Yes
    Format settings, ReFrames      : 2 frames
    Codec ID                       : 27
    Duration                       : 3mn 39s
    Bit rate mode                  : Variable
    Bit rate                       : 29.0 Mbps
    Maximum bit rate               : 15.0 Mbps
    Width                          : 1 920 pixels
    Height                         : 1 080 pixels
    Display aspect ratio           : 16:9
    Frame rate                     : 25.000 fps
    Color space                    : YUV
    Chroma subsampling             : 4:2:0
    Bit depth                      : 8 bits
    Scan type                      : MBAFF
    Bits/(Pixel*Frame)             : 0.559
    Stream size                    : 756 MiB (94%)
    
    Audio
    ID                             : 101 (0x65)
    Menu ID                        : 2 (0x2)
    Format                         : AAC
    Format/Info                    : Advanced Audio Codec
    Format version                 : Version 4
    Format profile                 : LC
    Muxing mode                    : ADTS
    Codec ID                       : 15
    Duration                       : 3mn 38s
    Bit rate mode                  : Variable
    Bit rate                       : 220 Kbps
    Channel(s)                     : 2 channels
    Channel positions              : Front: L R
    Sampling rate                  : 48.0 KHz
    Compression mode               : Lossy
    Delay relative to video        : -19ms
    Stream size                    : 5.73 MiB (1%)

    [​IMG]

    Download:
    Hidden Content:
    You must either reply or click 'Like' to see the hidden information contained here.
    CAPPED BY ME :victory:
     
  2. Loading...


  3. joelh20101

    joelh20101 Well-Known Member

    Joined:
    Nov 4, 2013
    Messages:
    1,459
    Likes Received:
    140
    thanks for this
     
  4. Antony

    Antony Active Member

    Joined:
    Nov 11, 2013
    Messages:
    743
    Likes Received:
    182
    Yaaass thanks!!!!
     
  5. klaus

    klaus Member

    Joined:
    Sep 11, 2014
    Messages:
    823
    Likes Received:
    10
    thank you
     
  6. celio

    celio Member

    Joined:
    Oct 29, 2013
    Messages:
    965
    Likes Received:
    15
    very cool
     
  7. beAst5

    beAst5 Member

    Joined:
    Mar 30, 2014
    Messages:
    219
    Likes Received:
    12
    thank you
     
  8. slill

    slill Member

    Joined:
    Jul 25, 2014
    Messages:
    929
    Likes Received:
    11
    thanks
     
  9. ddXogo

    ddXogo Member

    Joined:
    May 26, 2014
    Messages:
    263
    Likes Received:
    13
    sexy girls
     
  10. Regis

    Regis Well-Known Member

    Joined:
    Jul 14, 2015
    Messages:
    1,002
    Likes Received:
    25
    Thank you so much! :)
     
  11. Regis

    Regis Well-Known Member

    Joined:
    Jul 14, 2015
    Messages:
    1,002
    Likes Received:
    25
    Thank you so much! :)
     
  12. AngeloXXX

    AngeloXXX Member

    Joined:
    Jul 30, 2016
    Messages:
    34
    Likes Received:
    1
    thank u
     
  13. Mikki91

    Mikki91 Member

    Joined:
    Oct 29, 2016
    Messages:
    188
    Likes Received:
    1
    Thanks :)
     
  14. pop2video

    pop2video New Member

    Joined:
    Mar 5, 2016
    Messages:
    13
    Likes Received:
    3
    amazing
    thx so much
     
  15. aria99

    aria99 Active Member

    Joined:
    Jun 3, 2015
    Messages:
    232
    Likes Received:
    54
    Thansk
     
  16. jottar

    jottar Member

    Joined:
    Dec 5, 2016
    Messages:
    133
    Likes Received:
    3
    muito bom
     
  17. logrono

    logrono Member

    Joined:
    Mar 8, 2017
    Messages:
    333
    Likes Received:
    2
    thanks
     
  18. seregil

    seregil Member

    Joined:
    Sep 5, 2014
    Messages:
    103
    Likes Received:
    1
    thanks
     
  19. BlueNature

    BlueNature Member

    Joined:
    Sep 28, 2014
    Messages:
    333
    Likes Received:
    3
    thanks.
     
  20. gamer10012

    gamer10012 New Member

    Joined:
    Oct 10, 2015
    Messages:
    17
    Likes Received:
    0