Fifth Harmony ft. Kid Ink - Worth It (VEVOtv HDTV-1080i 30Mbps) Danixat-HDMania

Discussion in 'VEVOtv' started by danixat, Mar 29, 2016.

  1. danixat

    danixat Katycat ^-^ Capper V . I . P. Donor

    Joined:
    Feb 23, 2014
    Messages:
    1,144
    Likes Received:
    5,779
    [​IMG]
    [​IMG]
    [​IMG]
    [​IMG]
    Code:
    General
    ID                             : 1 (0x1)
    Complete name                  : K:\Fifth Harmony ft. Kid Ink - Worth It (VEVOtv HDTV-1080i 30Mbps) Danixat-HDMania.ts
    Format                         : MPEG-TS
    File size                      : 818 MiB
    Duration                       : 3mn 43s
    Overall bit rate mode          : Variable
    Overall bit rate               : 30.7 Mbps
    
    Video
    ID                             : 100 (0x64)
    Menu ID                        : 2 (0x2)
    Format                         : AVC
    Format/Info                    : Advanced Video Codec
    Format profile                 : [email protected]
    Format settings, CABAC         : Yes
    Format settings, ReFrames      : 2 frames
    Codec ID                       : 27
    Duration                       : 3mn 43s
    Bit rate mode                  : Variable
    Bit rate                       : 29.0 Mbps
    Maximum bit rate               : 15.0 Mbps
    Width                          : 1 920 pixels
    Height                         : 1 080 pixels
    Display aspect ratio           : 16:9
    Frame rate                     : 25.000 fps
    Color space                    : YUV
    Chroma subsampling             : 4:2:0
    Bit depth                      : 8 bits
    Scan type                      : MBAFF
    Bits/(Pixel*Frame)             : 0.559
    Stream size                    : 772 MiB (94%)
    
    Audio
    ID                             : 101 (0x65)
    Menu ID                        : 2 (0x2)
    Format                         : AAC
    Format/Info                    : Advanced Audio Codec
    Format version                 : Version 4
    Format profile                 : LC
    Muxing mode                    : ADTS
    Codec ID                       : 15
    Duration                       : 3mn 43s
    Bit rate mode                  : Variable
    Bit rate                       : 220 Kbps
    Channel(s)                     : 2 channels
    Channel positions              : Front: L R
    Sampling rate                  : 48.0 KHz
    Compression mode               : Lossy
    Delay relative to video        : -13ms
    Stream size                    : 5.85 MiB (1%)

    [​IMG]

    Download:
    Hidden Content:
    You must either reply or click 'Like' to see the hidden information contained here.

    CAPPED BY ME :victory:
     
  2. Loading...


  3. kesh1000

    kesh1000 Member

    Joined:
    May 5, 2014
    Messages:
    74
    Likes Received:
    0
    Thank you!
     
  4. game

    game Member

    Joined:
    Jan 25, 2016
    Messages:
    199
    Likes Received:
    6
    Thank you!
     
  5. vaci

    vaci Member

    Joined:
    Jul 16, 2016
    Messages:
    65
    Likes Received:
    2
    Thank you!
     
  6. AngeloXXX

    AngeloXXX Member

    Joined:
    Jul 30, 2016
    Messages:
    31
    Likes Received:
    0
    thank u