Fifth Harmony feat. Ty Dolla $ign - Work From Home (BridgeHD-1080i-MP2-Olgold)-HDMania

Discussion in 'Bridge HD' started by Olgold, Oct 9, 2016.

  1. Olgold

    Olgold Well-Known Member Capper

    Joined:
    Aug 19, 2015
    Messages:
    436
    Likes Received:
    1,708
    Fifth Harmony feat. Ty Dolla $ign - Work From Home
    [​IMG]
    General
    Format : MPEG-TS
    File size : 230 MiB
    Duration : 3 min 33 s
    Overall bit rate mode : Variable
    Overall bit rate : 9 029 kb/s

    Video
    Format : AVC
    Format/Info : Advanced Video Codec
    Format profile : [email protected]
    Format settings, CABAC : Yes
    Format settings, ReFrames : 4 frames
    Duration : 3 min 33 s
    Bit rate : 8 389 kb/s
    Width : 1 920 pixels
    Height : 1 080 pixels
    Display aspect ratio : 16:9
    Frame rate : 25.000 FPS
    Standard : Component
    Color space : YUV
    Chroma subsampling : 4:2:0
    Bit depth : 8 bits
    Scan type : Interlaced
    Scan type, store method : Separated fields
    Scan order : Top Field First
    Bits/(Pixel*Frame) : 0.162
    Stream size : 213 MiB (93%)
    Color range : Limited

    Audio
    Format : MPEG Audio
    Format version : Version 1
    Format profile : Layer 2
    Duration : 3 min 33 s
    Bit rate mode : Constant
    Bit rate : 192 kb/s
    Channel(s) : 2 channels
    Sampling rate : 48.0 kHz
    Compression mode : Lossy
    Delay relative to video : -8 ms
    Stream size : 4.89 MiB (2%)
    Password: Olgold

    Hidden Content:
    You must reply before you can see the hidden data contained here.
     
    curg, MACHADO, BlueNature and 4 others like this.
  2. Loading...


  3. Ray031

    Ray031 Member

    Joined:
    Jul 11, 2015
    Messages:
    371
    Likes Received:
    10
    Thank you so much
     
  4. rhea

    rhea Well-Known Member

    Joined:
    Jan 6, 2014
    Messages:
    6,956
    Likes Received:
    755
    thank you so much :)
     
  5. CELOBRAZiL

    CELOBRAZiL Well-Known Member Capper V . I . P. Donor

    Joined:
    Oct 2, 2013
    Messages:
    4,093
    Likes Received:
    12,871
    Thank you so much! :)
     
  6. Dreamer

    Dreamer Lana Del Rey ♥ Halsey Capper V . I . P. Uploader

    Joined:
    Dec 4, 2014
    Messages:
    2,883
    Likes Received:
    4,398
    Thanks
     
  7. BinhTVT

    BinhTVT Member

    Joined:
    Jun 30, 2015
    Messages:
    182
    Likes Received:
    3
    thank u
     
  8. rcj

    rcj Member

    Joined:
    May 11, 2016
    Messages:
    451
    Likes Received:
    16
    Thank U!
     
  9. Flaxdevil

    Flaxdevil Member

    Joined:
    May 25, 2014
    Messages:
    285
    Likes Received:
    11
    Gracias!
     
  10. jacemace

    jacemace New Member

    Joined:
    Dec 18, 2016
    Messages:
    29
    Likes Received:
    1
    thanks for posting
     
  11. Joseph

    Joseph Active Member

    Joined:
    Dec 10, 2013
    Messages:
    748
    Likes Received:
    168
    thank you
     
  12. Dima24684

    Dima24684 Member

    Joined:
    Dec 20, 2015
    Messages:
    216
    Likes Received:
    9
    thanks
     
  13. BlueNature

    BlueNature Member

    Joined:
    Sep 28, 2014
    Messages:
    348
    Likes Received:
    4
    thank you.
     
  14. revilo18

    revilo18 Well-Known Member

    Joined:
    May 26, 2016
    Messages:
    1,875
    Likes Received:
    85
    thankkk
     
  15. Jorge Barrionuevo

    Jorge Barrionuevo Well-Known Member

    Joined:
    Jun 9, 2015
    Messages:
    1,263
    Likes Received:
    494
    Muchas Gracias!
     
  16. MACHADO

    MACHADO Member

    Joined:
    Jun 12, 2017
    Messages:
    348
    Likes Received:
    19
    gRACIAS
     
  17. Rorschach95

    Rorschach95 Member

    Joined:
    Jun 12, 2016
    Messages:
    198
    Likes Received:
    0
  18. curg

    curg Active Member

    Joined:
    Dec 6, 2013
    Messages:
    911
    Likes Received:
    33
    thanks
     
  19. erroljr1977

    erroljr1977 Member

    Joined:
    Apr 18, 2017
    Messages:
    440
    Likes Received:
    11
    thanks