Fifth Harmony feat. Kid Ink - Worth It (BridgeHD-1080i-MP2-Olgold)-HDMania

Discussion in 'Bridge HD' started by Olgold, Oct 17, 2016.

  1. Olgold

    Olgold Well-Known Member Capper

    Joined:
    Aug 19, 2015
    Messages:
    436
    Likes Received:
    1,677
    Fifth Harmony feat. Kid Ink - Worth It
    [​IMG]
    General
    Format : MPEG-TS
    File size : 231 MiB
    Duration : 3 min 41 s
    Overall bit rate mode : Variable
    Overall bit rate : 8 733 kb/s

    Video
    Format : AVC
    Format/Info : Advanced Video Codec
    Format profile : [email protected]
    Format settings, CABAC : Yes
    Format settings, ReFrames : 4 frames
    Duration : 3 min 41 s
    Bit rate : 8 108 kb/s
    Width : 1 920 pixels
    Height : 1 080 pixels
    Display aspect ratio : 16:9
    Frame rate : 25.000 FPS
    Standard : Component
    Color space : YUV
    Chroma subsampling : 4:2:0
    Bit depth : 8 bits
    Scan type : Interlaced
    Scan type, store method : Separated fields
    Scan order : Top Field First
    Bits/(Pixel*Frame) : 0.156
    Stream size : 214 MiB (93%)
    Color range : Limited

    Audio
    Format : MPEG Audio
    Format version : Version 1
    Format profile : Layer 2
    Duration : 3 min 41 s
    Bit rate mode : Constant
    Bit rate : 192 kb/s
    Channel(s) : 2 channels
    Sampling rate : 48.0 kHz
    Compression mode : Lossy
    Delay relative to video : -20 ms
    Stream size : 5.07 MiB (2%)
    Password: Olgold

    Hidden Content:
    You must reply before you can see the hidden data contained here.
     
  2. Loading...


  3. CELOBRAZiL

    CELOBRAZiL Well-Known Member Capper V . I . P. Donor

    Joined:
    Oct 2, 2013
    Messages:
    3,780
    Likes Received:
    11,489
    Thank you so much! :)
     
  4. rhea

    rhea Well-Known Member

    Joined:
    Jan 6, 2014
    Messages:
    6,620
    Likes Received:
    681
    thank you so much :)
     
  5. Ray031

    Ray031 Member

    Joined:
    Jul 11, 2015
    Messages:
    336
    Likes Received:
    10
    Thank You
     
  6. Dreamer

    Dreamer Lana Del Rey ♥ Halsey Capper V . I . P. Uploader

    Joined:
    Dec 4, 2014
    Messages:
    2,805
    Likes Received:
    3,934
    Thanks
     
  7. BinhTVT

    BinhTVT Member

    Joined:
    Jun 30, 2015
    Messages:
    182
    Likes Received:
    3
    thank u
     
  8. harmonizer54

    harmonizer54 Active Member

    Joined:
    Jul 21, 2016
    Messages:
    277
    Likes Received:
    220
  9. shetuxxx

    shetuxxx New Member

    Joined:
    Oct 11, 2016
    Messages:
    20
    Likes Received:
    0
    member
     
  10. rcj

    rcj Member

    Joined:
    May 11, 2016
    Messages:
    418
    Likes Received:
    14
    Thank U!
     
  11. Joseph

    Joseph Active Member

    Joined:
    Dec 10, 2013
    Messages:
    746
    Likes Received:
    167
    thanks
     
  12. revilo18

    revilo18 Well-Known Member

    Joined:
    May 26, 2016
    Messages:
    1,851
    Likes Received:
    83
    thankkkk
     
  13. revilo18

    revilo18 Well-Known Member

    Joined:
    May 26, 2016
    Messages:
    1,851
    Likes Received:
    83
    thajjjjjdsdssd
     
  14. noriscout

    noriscout Active Member

    Joined:
    Apr 26, 2017
    Messages:
    290
    Likes Received:
    63
    Thanks, friend
     
  15. JJ6851985

    JJ6851985 Member

    Joined:
    May 3, 2017
    Messages:
    192
    Likes Received:
    1
    thank you
     
  16. lyana94

    lyana94 Well-Known Member

    Joined:
    Jul 5, 2017
    Messages:
    1,173
    Likes Received:
    35
    t
    hanks
     
  17. chello21

    chello21 Member

    Joined:
    Aug 5, 2017
    Messages:
    78
    Likes Received:
    0
  18. erroljr1977

    erroljr1977 Member

    Joined:
    Apr 18, 2017
    Messages:
    439
    Likes Received:
    8
    thanks