Fifth Harmony feat. Kid Ink - Worth It (BridgeHD-1080i-MP2-Olgold)-HDMania

Discussion in 'Bridge HD' started by Olgold, Oct 17, 2016.

  1. Olgold

    Olgold Well-Known Member Capper

    Joined:
    Aug 19, 2015
    Messages:
    435
    Likes Received:
    1,487
    Fifth Harmony feat. Kid Ink - Worth It
    [​IMG]
    General
    Format : MPEG-TS
    File size : 231 MiB
    Duration : 3 min 41 s
    Overall bit rate mode : Variable
    Overall bit rate : 8 733 kb/s

    Video
    Format : AVC
    Format/Info : Advanced Video Codec
    Format profile : [email protected]
    Format settings, CABAC : Yes
    Format settings, ReFrames : 4 frames
    Duration : 3 min 41 s
    Bit rate : 8 108 kb/s
    Width : 1 920 pixels
    Height : 1 080 pixels
    Display aspect ratio : 16:9
    Frame rate : 25.000 FPS
    Standard : Component
    Color space : YUV
    Chroma subsampling : 4:2:0
    Bit depth : 8 bits
    Scan type : Interlaced
    Scan type, store method : Separated fields
    Scan order : Top Field First
    Bits/(Pixel*Frame) : 0.156
    Stream size : 214 MiB (93%)
    Color range : Limited

    Audio
    Format : MPEG Audio
    Format version : Version 1
    Format profile : Layer 2
    Duration : 3 min 41 s
    Bit rate mode : Constant
    Bit rate : 192 kb/s
    Channel(s) : 2 channels
    Sampling rate : 48.0 kHz
    Compression mode : Lossy
    Delay relative to video : -20 ms
    Stream size : 5.07 MiB (2%)
    Password: Olgold

    Hidden Content:
    You must reply before you can see the hidden data contained here.
     
  2. Loading...


  3. CELOBRAZiL

    CELOBRAZiL Well-Known Member Capper V . I . P. Donor

    Joined:
    Oct 2, 2013
    Messages:
    2,296
    Likes Received:
    6,321
    Thank you so much! :)
     
  4. rhea

    rhea Well-Known Member

    Joined:
    Jan 6, 2014
    Messages:
    5,577
    Likes Received:
    340
    thank you so much :)
     
  5. Ray031

    Ray031 Member

    Joined:
    Jul 11, 2015
    Messages:
    316
    Likes Received:
    8
    Thank You
     
  6. Dreamer

    Dreamer Lana Del Rey ♥ Capper Uploader

    Joined:
    Dec 4, 2014
    Messages:
    2,407
    Likes Received:
    2,468
    Thanks
     
  7. BinhTVT

    BinhTVT Member

    Joined:
    Jun 30, 2015
    Messages:
    178
    Likes Received:
    3
    thank u
     
  8. harmonizer54

    harmonizer54 Active Member

    Joined:
    Jul 21, 2016
    Messages:
    150
    Likes Received:
    76
  9. shetuxxx

    shetuxxx New Member

    Joined:
    Oct 11, 2016
    Messages:
    17
    Likes Received:
    0
    member
     
  10. rcj

    rcj Member

    Joined:
    May 11, 2016
    Messages:
    280
    Likes Received:
    12
    Thank U!
     
  11. Joseph

    Joseph Active Member

    Joined:
    Dec 10, 2013
    Messages:
    740
    Likes Received:
    162
    thanks
     
  12. revilo18

    revilo18 Well-Known Member

    Joined:
    May 26, 2016
    Messages:
    1,482
    Likes Received:
    61
    thankkkk
     
  13. revilo18

    revilo18 Well-Known Member

    Joined:
    May 26, 2016
    Messages:
    1,482
    Likes Received:
    61
    thajjjjjdsdssd