Fergie - You Already Know [feat. Nicki Minaj] (VK-1080p-Kleopatra Girl)

Discussion in 'Music Videos' started by Kleopatra Girl, Sep 9, 2017.

?

Do you like Nicki's look?

  1. Yes, Amazing!

  2. No, She Looks Like Male

  3. I Didn't Watch This Video

Results are only viewable after voting.
  1. D3mon86

    D3mon86 Member

    Joined:
    Dec 19, 2016
    Messages:
    850
    Likes Received:
    14
    thanks
     
  2. marciorobertopereira

    marciorobertopereira Member

    Joined:
    Oct 10, 2015
    Messages:
    115
    Likes Received:
    3
    thankyouforvideo
     
  3. Tommyboy

    Tommyboy Active Member

    Joined:
    Oct 23, 2016
    Messages:
    906
    Likes Received:
    35
    T.Hanks
     
  4. gabrielavila1995

    gabrielavila1995 Member

    Joined:
    Aug 1, 2017
    Messages:
    165
    Likes Received:
    14
    obrigado
    [​IMG]
    Code:
    General
    Complete name               : D:\Downloads\Fergie - You Already Know (feat. Nicki Minaj) [VK-Aac AnIlrk].mp4
    Format                      : MPEG-4
    Format profile              : Base Media
    Codec ID                    : isom (isom/iso2/avc1/mp41)
    File size                   : 74.6 MiB
    Duration                    : 4 min 15 s
    Overall bit rate mode       : Variable
    Overall bit rate            : 2 447 kb/s
    Writing application         : Lavf56.25.101
    
    Video
    ID                          : 1
    Format                      : AVC
    Format/Info                 : Advanced Video Codec
    Format profile              : High@L4
    Format settings, CABAC      : Yes
    Format settings, RefFrames  : 2 frames
    Codec ID                    : avc1
    Codec ID/Info               : Advanced Video Coding
    Duration                    : 4 min 15 s
    Bit rate                    : 2 294 kb/s
    Width                       : 1 920 pixels
    Height                      : 1 080 pixels
    Display aspect ratio        : 16:9
    Frame rate mode             : Variable
    Frame rate                  : 23.976 (24000/1001) FPS
    Minimum frame rate          : 23.974 FPS
    Maximum frame rate          : 23.981 FPS
    Color space                 : YUV
    Chroma subsampling          : 4:2:0
    Bit depth                   : 8 bits
    Scan type                   : Progressive
    Bits/(Pixel*Frame)          : 0.046
    Stream size                 : 69.9 MiB (94%)
    Color range                 : Limited
    Color primaries             : BT.709
    Transfer characteristics    : BT.709
    Matrix coefficients         : BT.709
    
    Audio
    ID                          : 2
    Format                      : AAC
    Format/Info                 : Advanced Audio Codec
    Format profile              : LC
    Codec ID                    : 40
    Duration                    : 4 min 15 s
    Duration_LastFrame          : 23 ms
    Bit rate mode               : Variable
    Bit rate                    : 148 kb/s
    Maximum bit rate            : 192 kb/s
    Channel(s)                  : 2 channels
    Channel positions           : Front: L R
    Sampling rate               : 44.1 kHz
    Frame rate                  : 43.066 FPS (1024 SPF)
    Compression mode            : Lossy
    Stream size                 : 4.50 MiB (6%)
    Default                     : Yes
    Alternate group             : 1
    ***Hidden content cannot be quoted.***
    [/QUOTE]
     
  5. kokoo

    kokoo New Member

    Joined:
    Apr 25, 2017
    Messages:
    24
    Likes Received:
    1
    thank you
     
  6. ben_richards

    ben_richards Active Member

    Joined:
    Feb 2, 2016
    Messages:
    418
    Likes Received:
    45
    Thanks for Fergie!
     
  7. JPGAmbrosino

    JPGAmbrosino Active Member

    Joined:
    Jul 30, 2016
    Messages:
    629
    Likes Received:
    28
    txs a lotttt
     
  8. masuood12

    masuood12 Member

    Joined:
    Aug 1, 2016
    Messages:
    329
    Likes Received:
    6
    reply
     
  9. brenoallex

    brenoallex Active Member

    Joined:
    Sep 4, 2016
    Messages:
    438
    Likes Received:
    35
    thanks
     
  10. Eric4163

    Eric4163 New Member

    Joined:
    Apr 21, 2017
    Messages:
    25
    Likes Received:
    0
    Thnks
     
  11. shivandrews

    shivandrews New Member

    Joined:
    Aug 27, 2017
    Messages:
    24
    Likes Received:
    2
  12. mr.meng6784

    mr.meng6784 Member

    Joined:
    Nov 25, 2016
    Messages:
    71
    Likes Received:
    2
    thanksss
     
  13. ZANGEEF05

    ZANGEEF05 New Member

    Joined:
    Oct 16, 2015
    Messages:
    14
    Likes Received:
    0
    thankssss
     
  14. bezvezesad

    bezvezesad Member

    Joined:
    May 25, 2017
    Messages:
    782
    Likes Received:
    17
    Thanks so much for the video, Top
     
  15. DiVenturas

    DiVenturas Well-Known Member

    Joined:
    Oct 21, 2015
    Messages:
    2,766
    Likes Received:
    162
  16. skynets1000

    skynets1000 New Member

    Joined:
    May 19, 2015
    Messages:
    19
    Likes Received:
    1
  17. carlos024333

    carlos024333 Active Member

    Joined:
    Mar 28, 2016
    Messages:
    700
    Likes Received:
    29
  18. geriaamh

    geriaamh Member

    Joined:
    Sep 16, 2017
    Messages:
    84
    Likes Received:
    6
  19. ARAGNANO

    ARAGNANO New Member

    Joined:
    Feb 6, 2017
    Messages:
    6
    Likes Received:
    1
    Thanks so much for the video, Top
     
  20. d4rk0n3

    d4rk0n3 Member

    Joined:
    Nov 5, 2013
    Messages:
    518
    Likes Received:
    16
    thanks