Fergie - You Already Know [feat. Nicki Minaj] (VK-1080p-Kleopatra Girl)

Discussion in 'Music Videos' started by Kleopatra Girl, Sep 9, 2017.

?

Do you like Nicki's look?

  1. Yes, Amazing!

  2. No, She Looks Like Male

  3. I Didn't Watch This Video

Results are only viewable after voting.
  1. Avatarr

    Avatarr Privatebarb

    Joined:
    Dec 3, 2016
    Messages:
    187
    Likes Received:
    2
    Thank You!
     
  2. nolynexor88

    nolynexor88 Well-Known Member

    Joined:
    Sep 29, 2015
    Messages:
    1,474
    Likes Received:
    100
    thank you
     
  3. tenfour

    tenfour Member

    Joined:
    Dec 22, 2015
    Messages:
    482
    Likes Received:
    16
    Thanks!
     
  4. 010juninho

    010juninho Well-Known Member

    Joined:
    Jan 16, 2016
    Messages:
    1,102
    Likes Received:
    50
  5. Ashh

    Ashh Member

    Joined:
    Jun 4, 2017
    Messages:
    101
    Likes Received:
    2
    Thanks :)
     
  6. joshnthenet

    joshnthenet New Member

    Joined:
    Apr 29, 2017
    Messages:
    15
    Likes Received:
    3
    great video. thanks a lot!
     
  7. Marcelo Garcia Junior

    Marcelo Garcia Junior Member

    Joined:
    Jun 3, 2015
    Messages:
    671
    Likes Received:
    14
  8. dark1angel

    dark1angel Member

    Joined:
    Oct 7, 2013
    Messages:
    149
    Likes Received:
    5
  9. cotoipa

    cotoipa Member

    Joined:
    Jun 24, 2017
    Messages:
    313
    Likes Received:
    13
    thanks
     
  10. RIKI23

    RIKI23 Active Member

    Joined:
    Oct 13, 2013
    Messages:
    510
    Likes Received:
    28
    THAAANK YOOU DARLING <3
     
  11. blaze223

    blaze223 Member

    Joined:
    May 19, 2015
    Messages:
    170
    Likes Received:
    7
  12. omide

    omide Member

    Joined:
    Jan 21, 2016
    Messages:
    256
    Likes Received:
    0
    TNX ...
     
  13. curg

    curg Well-Known Member

    Joined:
    Dec 6, 2013
    Messages:
    1,126
    Likes Received:
    36
    thank you
     
  14. chichi

    chichi Active Member

    Joined:
    May 19, 2015
    Messages:
    188
    Likes Received:
    25
    thank
    s!
     
  15. maria do socorro

    maria do socorro Member

    Joined:
    Jul 28, 2017
    Messages:
    236
    Likes Received:
    2
    9iiiiiiiiiiiii
     
  16. caveman

    caveman Member

    Joined:
    Jan 8, 2017
    Messages:
    53
    Likes Received:
    3
    thanks
     
  17. zohak666

    zohak666 New Member

    Joined:
    Aug 20, 2017
    Messages:
    2
    Likes Received:
    0
    great
    [​IMG]
    Code:
    General
    Complete name               : D:\Downloads\Fergie - You Already Know (feat. Nicki Minaj) [VK-Aac AnIlrk].mp4
    Format                      : MPEG-4
    Format profile              : Base Media
    Codec ID                    : isom (isom/iso2/avc1/mp41)
    File size                   : 74.6 MiB
    Duration                    : 4 min 15 s
    Overall bit rate mode       : Variable
    Overall bit rate            : 2 447 kb/s
    Writing application         : Lavf56.25.101
    
    Video
    ID                          : 1
    Format                      : AVC
    Format/Info                 : Advanced Video Codec
    Format profile              : High@L4
    Format settings, CABAC      : Yes
    Format settings, RefFrames  : 2 frames
    Codec ID                    : avc1
    Codec ID/Info               : Advanced Video Coding
    Duration                    : 4 min 15 s
    Bit rate                    : 2 294 kb/s
    Width                       : 1 920 pixels
    Height                      : 1 080 pixels
    Display aspect ratio        : 16:9
    Frame rate mode             : Variable
    Frame rate                  : 23.976 (24000/1001) FPS
    Minimum frame rate          : 23.974 FPS
    Maximum frame rate          : 23.981 FPS
    Color space                 : YUV
    Chroma subsampling          : 4:2:0
    Bit depth                   : 8 bits
    Scan type                   : Progressive
    Bits/(Pixel*Frame)          : 0.046
    Stream size                 : 69.9 MiB (94%)
    Color range                 : Limited
    Color primaries             : BT.709
    Transfer characteristics    : BT.709
    Matrix coefficients         : BT.709
    
    Audio
    ID                          : 2
    Format                      : AAC
    Format/Info                 : Advanced Audio Codec
    Format profile              : LC
    Codec ID                    : 40
    Duration                    : 4 min 15 s
    Duration_LastFrame          : 23 ms
    Bit rate mode               : Variable
    Bit rate                    : 148 kb/s
    Maximum bit rate            : 192 kb/s
    Channel(s)                  : 2 channels
    Channel positions           : Front: L R
    Sampling rate               : 44.1 kHz
    Frame rate                  : 43.066 FPS (1024 SPF)
    Compression mode            : Lossy
    Stream size                 : 4.50 MiB (6%)
    Default                     : Yes
    Alternate group             : 1
    ***Hidden content cannot be quoted.***
    [/QUOTE]
     
  18. norman1986

    norman1986 Member

    Joined:
    May 21, 2016
    Messages:
    35
    Likes Received:
    1
    thanks!
     
  19. ncfizzle

    ncfizzle New Member

    Joined:
    May 7, 2017
    Messages:
    10
    Likes Received:
    0
    thanks for this one!
     
  20. Candyon

    Candyon Member

    Joined:
    Feb 3, 2017
    Messages:
    123
    Likes Received:
    11
    thanks