FEED Fergie - Rock in Rio Lisboa [May-20-2016] FEED 1080i MPA2.0 H.264 art-v-k-HDMania

Discussion in 'HD Live Performances' started by CELOBRAZiL, Nov 29, 2020.

  1. CELOBRAZiL

    CELOBRAZiL Well-Known Member Capper V . I . P. Donor

    Joined:
    Oct 2, 2013
    Messages:
    9,699
    Likes Received:
    36,682
    Fergie - Rock in Rio Lisboa [May-20-2016] FEED 1080i MPA2.0 H.264 art-v-k-HDMania

    [​IMG]



    Format : MPEG-TS
    File size : 6.47 GiB
    Duration : 1 h 0 min
    Overall bit rate mode : Variable
    Overall bit rate : 15.4 Mb/s

    Video
    ID : 512 (0x200)
    Menu ID : 1 (0x1)
    Format : AVC
    Format/Info : Advanced Video Codec
    Format profile : Main@L4
    Format settings : CABAC / 4 Ref Frames
    Format settings, CABAC : Yes
    Format settings, Reference frames : 4 frames
    Format settings, GOP : M=3, N=15
    Codec ID : 27
    Duration : 1 h 0 min
    Bit rate mode : Variable
    Bit rate : 14.2 Mb/s
    Maximum bit rate : 14.5 Mb/s
    Width : 1 920 pixels
    Height : 1 080 pixels
    Display aspect ratio : 16:9
    Frame rate : 25.000 FPS
    Color space : YUV
    Chroma subsampling : 4:2:0
    Bit depth : 8 bits
    Scan type : MBAFF
    Scan type, store method : Interleaved fields
    Scan order : Top Field First
    Bits/(Pixel*Frame) : 0.274
    Stream size : 5.99 GiB (93%)
    Color range : Limited
    Color primaries : BT.709
    Transfer characteristics : BT.709
    Matrix coefficients : BT.709

    Audio
    ID : 4112 (0x1010)
    Menu ID : 1 (0x1)
    Format : MPEG Audio
    Format version : Version 1
    Format profile : Layer 2
    Format settings : Dual mono
    Codec ID : 3
    Duration : 1 h 0 min
    Bit rate mode : Constant
    Bit rate : 384 kb/s
    Channel(s) : 2 channels
    Sampling rate : 48.0 kHz
    Frame rate : 41.667 FPS (1152 SPF)
    Compression mode : Lossy
    Delay relative to video : 12 ms
    Stream size : 165 MiB (2%)
    Language : English
    Language, more info : Clean effects


    Link(s):
    Hidden Content:
    You must either reply or click 'Like' to see the hidden information contained here.
     
    rokestrada, apl3, TzoyBe and 9 others like this.
  2. Loading...


  3. CELOBRAZiL

    CELOBRAZiL Well-Known Member Capper V . I . P. Donor

    Joined:
    Oct 2, 2013
    Messages:
    9,699
    Likes Received:
    36,682
    :love::love::love:

    Added GOOGLE DRIVE link! :p
     
    rokestrada likes this.
  4. 1stb2s

    1stb2s Active Member

    Joined:
    Aug 24, 2019
    Messages:
    484
    Likes Received:
    30
    MANY THANKS FOR THE UP !!! GREAT PQ !!! OUTSTANDING LIVE CONCERT !!!
     
    CELOBRAZiL likes this.
  5. benja

    benja Well-Known Member

    Joined:
    Jan 8, 2014
    Messages:
    2,180
    Likes Received:
    182
    Thank You !!!
     
    CELOBRAZiL likes this.
  6. rhea

    rhea Well-Known Member

    Joined:
    Jan 6, 2014
    Messages:
    11,453
    Likes Received:
    2,198
    thank you so much!
     
    CELOBRAZiL likes this.
  7. Merida

    Merida venice bitch

    Joined:
    Mar 12, 2020
    Messages:
    1,921
    Likes Received:
    1,547
    thanks
     
    CELOBRAZiL likes this.
  8. andreamonger

    andreamonger Well-Known Member

    Joined:
    May 16, 2015
    Messages:
    1,910
    Likes Received:
    334
    thank yiu
     
    CELOBRAZiL likes this.
  9. Dark Soul

    Dark Soul Active Member

    Joined:
    Sep 23, 2017
    Messages:
    947
    Likes Received:
    77
    Thanks
     
    CELOBRAZiL likes this.
  10. iametor

    iametor Active Member

    Joined:
    Oct 15, 2014
    Messages:
    918
    Likes Received:
    80
    Thanks for reposting!
     
    CELOBRAZiL likes this.
  11. Choppywaters

    Choppywaters Member

    Joined:
    Sep 14, 2019
    Messages:
    324
    Likes Received:
    18
    thanks
     
    CELOBRAZiL likes this.
  12. Boyfriend

    Boyfriend Active Member

    Joined:
    Jun 15, 2020
    Messages:
    289
    Likes Received:
    200
    Thank you for sharing.
     
    CELOBRAZiL likes this.
  13. zaq999

    zaq999 Active Member

    Joined:
    Feb 8, 2019
    Messages:
    633
    Likes Received:
    26
    Thanks
     
    CELOBRAZiL likes this.
  14. rokestrada

    rokestrada Member

    Joined:
    Dec 19, 2017
    Messages:
    35
    Likes Received:
    3
    thnk you so much!!