Fergie - M.I.L.F. $ (BridgeHD-1080i-MP2-Olgold)-HDMania

Discussion in 'Bridge HD' started by Olgold, Oct 9, 2016.

  1. Olgold

    Olgold Well-Known Member Capper

    Joined:
    Aug 19, 2015
    Messages:
    386
    Likes Received:
    1,303
    Fergie - M.I.L.F. $
    [​IMG]
    General
    Format : MPEG-TS
    File size : 141 MiB
    Duration : 2 min 38 s
    Overall bit rate mode : Variable
    Overall bit rate : 7 484 kb/s

    Video
    Format : AVC
    Format/Info : Advanced Video Codec
    Format profile : [email protected]
    Format settings, CABAC : Yes
    Format settings, ReFrames : 4 frames
    Duration : 2 min 38 s
    Bit rate : 6 920 kb/s
    Width : 1 920 pixels
    Height : 1 080 pixels
    Display aspect ratio : 16:9
    Frame rate : 25.000 FPS
    Standard : Component
    Color space : YUV
    Chroma subsampling : 4:2:0
    Bit depth : 8 bits
    Scan type : Interlaced
    Scan type, store method : Separated fields
    Scan order : Top Field First
    Bits/(Pixel*Frame) : 0.133
    Stream size : 130 MiB (92%)
    Color range : Limited

    Audio
    Format : MPEG Audio
    Format version : Version 1
    Format profile : Layer 2
    Duration : 2 min 38 s
    Bit rate mode : Constant
    Bit rate : 192 kb/s
    Channel(s) : 2 channels
    Sampling rate : 48.0 kHz
    Compression mode : Lossy
    Delay relative to video : -8 ms
    Stream size : 3.62 MiB (3%)
    Password: Olgold

    Hidden Content:
    You must reply before you can see the hidden data contained here.
     
    kryza, CELOBRAZiL, rhea and 1 other person like this.
  2. DETOX

    DETOX Well-Known Member V . I . P. Uploader

    Joined:
    Feb 20, 2014
    Messages:
    2,596
    Likes Received:
    12,211
    Thank you so much!
     
    Last edited: Oct 11, 2016
  3. theclimb

    theclimb Active Member

    Joined:
    Dec 16, 2014
    Messages:
    476
    Likes Received:
    54
    THANKS!
     
  4. rhea

    rhea Well-Known Member

    Joined:
    Jan 6, 2014
    Messages:
    5,193
    Likes Received:
    250
    thank you so much! :)
     
  5. CELOBRAZiL

    CELOBRAZiL Well-Known Member Capper V . I . P. Donor

    Joined:
    Oct 2, 2013
    Messages:
    1,341
    Likes Received:
    3,503
    Thank you so much! :)
     
  6. Tommyboy

    Tommyboy Member

    Joined:
    Oct 23, 2016
    Messages:
    385
    Likes Received:
    12
    Thanks
     
    mike gunen likes this.
  7. mike gunen

    mike gunen Member

    Joined:
    Nov 9, 2013
    Messages:
    659
    Likes Received:
    11
    thhhhhhh
     
  8. mike gunen

    mike gunen Member

    Joined:
    Nov 9, 2013
    Messages:
    659
    Likes Received:
    11
  9. mike gunen

    mike gunen Member

    Joined:
    Nov 9, 2013
    Messages:
    659
    Likes Received:
    11
    thanks
     
  10. hanshermann

    hanshermann Active Member

    Joined:
    Aug 24, 2016
    Messages:
    1,270
    Likes Received:
    1
    wahts taht
     
  11. hanshermann

    hanshermann Active Member

    Joined:
    Aug 24, 2016
    Messages:
    1,270
    Likes Received:
    1
    wahts taht