Fall Out Boy - Dance Dance HDTV 1080p

Discussion in 'MHD' started by adam dark, Dec 19, 2013.

  1. adam dark

    adam dark Video Music Lover <3 V . I . P.

    Joined:
    Dec 5, 2013
    Messages:
    2,601
    Likes Received:
    4,768
    Fall Out Boy - Dance Dance HDTV 1080p

    [​IMG]

    [​IMG]

    [​IMG]

    [​IMG]

    [​IMG]

    [​IMG]

    [​IMG]
    General
    Unique ID : 174481785328599086721598358874720147156 (0x8343F831E700783E913640B2614996D4)
    Complete name : Fall Out Boy - Dance Dance HDTV 1080p.mkv
    Format : Matroska
    Format version : Version 2
    File size : 197 MiB
    Duration : 4mn 35s
    Overall bit rate : 6 010 Kbps
    Movie name : Fall Out Boy - Dance Dance
    Encoded date : UTC 2011-06-25 14:42:50
    Writing application : mkvmerge v3.3.0 ('Language') built on Mar 24 2010 14:59:24
    Writing library : libebml v0.8.0 + libmatroska v0.9.0

    Video
    ID : 1
    Format : AVC
    Format/Info : Advanced Video Codec
    Format profile : [email protected]
    Format settings, CABAC : Yes
    Format settings, ReFrames : 4 frames
    Codec ID : V_MPEG4/ISO/AVC
    Duration : 4mn 35s
    Bit rate : 5 632 Kbps
    Width : 1 920 pixels
    Height : 1 080 pixels
    Display aspect ratio : 16:9
    Frame rate mode : Constant
    Frame rate : 29.970 fps
    Color space : YUV
    Chroma subsampling : 4:2:0
    Bit depth : 8 bits
    Scan type : Progressive
    Bits/(Pixel*Frame) : 0.091
    Stream size : 181 MiB (92%)
    Writing library : x264 core 68 r1183M f21daff
    Encoding settings : cabac=1 / ref=4 / deblock=1:-1:-1 / analyse=0x3:0x113 / me=umh / subme=7 / psy_rd=1.0:0.0 / mixed_ref=1 / me_range=16 / chroma_me=1 / trellis=2 / 8x8dct=1 / cqm=0 / deadzone=21,11 / chroma_qp_offset=-2 / threads=3 / nr=0 / decimate=1 / mbaff=0 / bframes=3 / b_pyramid=0 / b_adapt=2 / b_bias=0 / direct=3 / wpredb=1 / keyint=300 / keyint_min=25 / scenecut=40 / rc=2pass / bitrate=5632 / ratetol=1.0 / qcomp=0.60 / qpmin=10 / qpmax=51 / qpstep=4 / cplxblur=20.0 / qblur=0.5 / vbv_maxrate=50000 / vbv_bufsize=50000 / ip_ratio=1.40 / pb_ratio=1.30 / aq=1:1.00
    Language : English
    Default : Yes
    Forced : No

    Audio
    ID : 2
    Format : AC-3
    Format/Info : Audio Coding 3
    Mode extension : CM (complete main)
    Format settings, Endianness : Big
    Codec ID : A_AC3
    Duration : 4mn 35s
    Bit rate mode : Constant
    Bit rate : 384 Kbps
    Channel count : 2 channels
    Channel positions : Front: L R
    Sampling rate : 48.0 KHz
    Bit depth : 16 bits
    Compression mode : Lossy
    Delay relative to video : 14ms
    Stream size : 12.6 MiB (6%)
    Default : Yes
    Forced : No

    Hidden Content:
    You must reply before you can see the hidden data contained here.
    Credit to the original Capper
     
    lyana94 likes this.
  2. Loading...


  3. p4ramore

    p4ramore Member

    Joined:
    Feb 1, 2014
    Messages:
    45
    Likes Received:
    0
    THANKS
     
  4. acidjazz

    acidjazz New Member

    Joined:
    Apr 3, 2014
    Messages:
    3
    Likes Received:
    0
    thanks
     
  5. ytyh

    ytyh Member

    Joined:
    Mar 30, 2014
    Messages:
    432
    Likes Received:
    4
    Thank you
     
  6. adam dark

    adam dark Video Music Lover <3 V . I . P.

    Joined:
    Dec 5, 2013
    Messages:
    2,601
    Likes Received:
    4,768
    you're welcome! :)
     
  7. ManchesterSP

    ManchesterSP Member

    Joined:
    Jun 25, 2016
    Messages:
    39
    Likes Received:
    1
    thank you
     
  8. yonita

    yonita Active Member

    Joined:
    Mar 7, 2016
    Messages:
    427
    Likes Received:
    40
  9. orangemetaphor

    orangemetaphor New Member

    Joined:
    Sep 22, 2016
    Messages:
    22
    Likes Received:
    0
  10. CristianMatias

    CristianMatias HIGH DEFINITION

    Joined:
    Sep 17, 2016
    Messages:
    806
    Likes Received:
    21
  11. MrCarlos5296

    MrCarlos5296 Member

    Joined:
    Nov 13, 2016
    Messages:
    120
    Likes Received:
    1
  12. immortalzack

    immortalzack Member

    Joined:
    Jan 10, 2017
    Messages:
    183
    Likes Received:
    12
    tankssss you
     
  13. MrCarlos5295

    MrCarlos5295 Member

    Joined:
    Mar 13, 2017
    Messages:
    133
    Likes Received:
    8
  14. lyana94

    lyana94 Well-Known Member

    Joined:
    Jul 5, 2017
    Messages:
    1,169
    Likes Received:
    35
    TH
    ANKS