DVD Faithless - One Step Too Far (Feat. Dido) (Clean) [VOB]

Discussion in 'SD' started by claudio1301, Aug 18, 2020.

  1. claudio1301

    claudio1301 Well-Known Member V . I . P.

    Joined:
    Oct 2, 2018
    Messages:
    1,488
    Likes Received:
    3,532
    [​IMG]
    Code:
    General
    Complete name                  : Faithless - One Step Too Far (Feat. Dido) (Clean).vob
    Format                         : MPEG-PS
    File size                      : 119 MiB
    Duration                       : 3 min 26 s
    Overall bit rate mode          : Variable
    Overall bit rate               : 4 825 kb/s
    
    Video
    ID                             : 224 (0xE0)
    Format                         : MPEG Video
    Format version                 : Version 2
    Format profile                 : Main@Main
    Format settings                : CustomMatrix / BVOP
    Format settings, BVOP          : Yes
    Format settings, Matrix        : Custom
    Format settings, GOP           : M=3, N=15
    Format settings, picture struc : Frame
    Duration                       : 3 min 26 s
    Bit rate mode                  : Variable
    Bit rate                       : 4 500 kb/s
    Width                          : 720 pixels
    Height                         : 576 pixels
    Display aspect ratio           : 4:3
    Frame rate                     : 25.000 FPS
    Standard                       : PAL
    Color space                    : YUV
    Chroma subsampling             : 4:2:0
    Bit depth                      : 8 bits
    Scan type                      : Interlaced
    Scan order                     : Top Field First
    Compression mode               : Lossy
    Bits/(Pixel*Frame)             : 0.434
    Time code of first frame       : 00:00:00:00
    Time code source               : Group of pictures header
    GOP, Open/Closed               : Closed
    Stream size                    : 111 MiB (93%)
    
    Audio
    ID                             : 192 (0xC0)
    Format                         : MPEG Audio
    Format version                 : Version 1
    Format profile                 : Layer 2
    Duration                       : 3 min 26 s
    Bit rate mode                  : Constant
    Bit rate                       : 224 kb/s
    Channel(s)                     : 2 channels
    Sampling rate                  : 48.0 kHz
    Frame rate                     : 41.667 FPS (1152 SPF)
    Compression mode               : Lossy
    Stream size                    : 5.52 MiB (5%)
    
    Menu
    Host: Mediafire
    Hidden Content:
    You must reply before you can see the hidden data contained here.
     
  2. Loading...


  3. 96lagos

    96lagos Well-Known Member

    Joined:
    Dec 4, 2016
    Messages:
    2,138
    Likes Received:
    201
    Thanks
     
  4. Adryel

    Adryel Active Member

    Joined:
    Jan 26, 2019
    Messages:
    321
    Likes Received:
    41
    Thanks
     
  5. bayeer

    bayeer Member

    Joined:
    May 26, 2016
    Messages:
    58
    Likes Received:
    5
    dfhgdfhdfhf
     
  6. necromancylord63

    necromancylord63 Member

    Joined:
    Aug 7, 2020
    Messages:
    35
    Likes Received:
    2
  7. multimediafm

    multimediafm Well-Known Member Archiver Donor

    Joined:
    Mar 27, 2014
    Messages:
    19,173
    Likes Received:
    1,915