f(x) - Hot Summer (Mnet Asia HD)

Discussion in 'MNET' started by yukides, Apr 20, 2014.

  1. yukides

    yukides Active Member

    Joined:
    Nov 15, 2013
    Messages:
    170
    Likes Received:
    85
    f(x) - Hot Summer (Mnet Asia HD)

    [​IMG]
    Code:
    Format                                   : MPEG-TS
    File size                                : 367 MiB
    Duration                                 : 3mn 44s
    Overall bit rate mode                    : Variable
    Overall bit rate                         : 13.7 Mbps
    Maximum Overall bit rate                 : 35.5 Mbps
    
    Video
    ID                                       : 4113 (0x1011)
    Menu ID                                  : 1 (0x1)
    Format                                   : AVC
    Format/Info                              : Advanced Video Codec
    Format profile                           : [email protected]
    Format settings, CABAC                   : No
    Format settings, ReFrames                : 1 frame
    Codec ID                                 : 27
    Duration                                 : 3mn 44s
    Bit rate mode                            : Variable
    Bit rate                                 : 12.7 Mbps
    Maximum bit rate                         : 40.0 Mbps
    Width                                    : 1 920 pixels
    Height                                   : 1 080 pixels
    Display aspect ratio                     : 16:9
    Frame rate                               : 29.970 fps
    Color space                              : YUV
    Chroma subsampling                       : 4:2:0
    Bit depth                                : 8 bits
    Scan type                                : Progressive
    Bits/(Pixel*Frame)                       : 0.204
    Stream size                              : 340 MiB (93%)
    
    Audio
    ID                                       : 4352 (0x1100)
    Menu ID                                  : 1 (0x1)
    Format                                   : AC-3
    Format/Info                              : Audio Coding 3
    Mode extension                           : CM (complete main)
    Format settings, Endianness              : Big
    Codec ID                                 : 129
    Duration                                 : 3mn 44s
    Bit rate mode                            : Constant
    Bit rate                                 : 320 Kbps
    Channel(s)                               : 2 channels
    Channel positions                        : Front: L R
    Sampling rate                            : 48.0 KHz
    Bit depth                                : 16 bits
    Compression mode                         : Lossy
    Delay relative to video                  : -296ms
    Stream size                              : 8.57 MiB (2%)
    Link
    Hidden Content:
    You must reply before you can see the hidden data contained here.
     
    joelh20101, rhea, DETOX and 1 other person like this.
  2. talata

    talata Member

    Joined:
    Nov 14, 2013
    Messages:
    262
    Likes Received:
    6
    Thanks!
     
  3. ryualviss

    ryualviss Active Member

    Joined:
    Jan 6, 2014
    Messages:
    151
    Likes Received:
    520
    thanks keep up the good work :)
     
  4. DETOX

    DETOX Well-Known Member V . I . P. Uploader

    Joined:
    Feb 20, 2014
    Messages:
    2,902
    Likes Received:
    19,369
    Thank you so much! :D
    You have T-ARA - Roly-Poly in Copacabana (Mnet HD)?
     
  5. yukides

    yukides Active Member

    Joined:
    Nov 15, 2013
    Messages:
    170
    Likes Received:
    85
    Sorry, I don't have that vídeo :(
     
    Last edited: Apr 21, 2014
  6. rhea

    rhea Well-Known Member

    Joined:
    Jan 6, 2014
    Messages:
    6,150
    Likes Received:
    496
    thanks
     
  7. Kensing

    Kensing Member

    Joined:
    Dec 27, 2013
    Messages:
    262
    Likes Received:
    0
    Thanks
     
  8. Binh

    Binh Member

    Joined:
    Nov 18, 2013
    Messages:
    86
    Likes Received:
    1
    Thanks
     
  9. boy

    boy Member

    Joined:
    Dec 19, 2013
    Messages:
    353
    Likes Received:
    10
    thanks
     
  10. MCTR

    MCTR Active Member

    Joined:
    Feb 23, 2014
    Messages:
    293
    Likes Received:
    35
    thanks
     
  11. slill

    slill Active Member

    Joined:
    Jul 25, 2014
    Messages:
    1,028
    Likes Received:
    14
    thanks for sharing
     
  12. abcde54321

    abcde54321 Member

    Joined:
    Apr 6, 2014
    Messages:
    770
    Likes Received:
    20
     
  13. gstnedgrdrch93

    gstnedgrdrch93 Member

    Joined:
    Oct 12, 2014
    Messages:
    54
    Likes Received:
    1
     
  14. Dreamer

    Dreamer Lana Del Rey ♥ Capper V . I . P. Uploader

    Joined:
    Dec 4, 2014
    Messages:
    2,647
    Likes Received:
    3,164
    Thank u
     
  15. joelh20101

    joelh20101 Well-Known Member

    Joined:
    Nov 4, 2013
    Messages:
    1,459
    Likes Received:
    143
  16. Zeeh

    Zeeh Member

    Joined:
    Mar 20, 2015
    Messages:
    582
    Likes Received:
    12
    Thanks
     
  17. ductamnd

    ductamnd New Member

    Joined:
    Jan 26, 2016
    Messages:
    17
    Likes Received:
    0
    Thank U :D
     
  18. tranmanduy

    tranmanduy Member

    Joined:
    Jan 5, 2017
    Messages:
    155
    Likes Received:
    4
    Love you
     
  19. daring767

    daring767 Member

    Joined:
    Jun 23, 2017
    Messages:
    71
    Likes Received:
    1
    sssss