f(x) - Chocolate Love (tvN HD)

Discussion in 'TVN HD' started by yukides, Apr 21, 2014.

  1. yukides

    yukides Active Member

    Joined:
    Nov 15, 2013
    Messages:
    167
    Likes Received:
    78
    f(x) - Chocolate Love (tvN HD)

    [​IMG]
    Code:
    Format                                   : MPEG-TS
    File size                                : 229 MiB
    Duration                                 : 3mn 42s
    Overall bit rate mode                    : Variable
    Overall bit rate                         : 8 613 Kbps
    
    Video
    ID                                       : 17 (0x11)
    Menu ID                                  : 1 (0x1)
    Format                                   : AVC
    Format/Info                              : Advanced Video Codec
    Format profile                           : [email protected]
    Format settings, CABAC                   : Yes
    Format settings, ReFrames                : 4 frames
    Codec ID                                 : 27
    Duration                                 : 3mn 42s
    Bit rate                                 : 7 800 Kbps
    Width                                    : 1 920 pixels
    Height                                   : 1 080 pixels
    Display aspect ratio                     : 16:9
    Frame rate                               : 29.970 fps
    Color space                              : YUV
    Chroma subsampling                       : 4:2:0
    Bit depth                                : 8 bits
    Scan type                                : Interlaced
    Scan order                               : Top Field First
    Bits/(Pixel*Frame)                       : 0.126
    Stream size                              : 207 MiB (90%)
    Color primaries                          : BT.709
    Transfer characteristics                 : BT.709
    Matrix coefficients                      : BT.709
    
    Audio
    ID                                       : 20 (0x14)
    Menu ID                                  : 1 (0x1)
    Format                                   : AC-3
    Format/Info                              : Audio Coding 3
    Mode extension                           : CM (complete main)
    Format settings, Endianness              : Big
    Codec ID                                 : 129
    Duration                                 : 3mn 42s
    Bit rate mode                            : Constant
    Bit rate                                 : 384 Kbps
    Channel(s)                               : 2 channels
    Channel positions                        : Front: L R
    Sampling rate                            : 48.0 KHz
    Bit depth                                : 16 bits
    Compression mode                         : Lossy
    Delay relative to video                  : -519ms
    Stream size                              : 10.2 MiB (4%)
    Link
    Hidden Content:
    You must reply before you can see the hidden data contained here.
     
    iqson and rhea like this.
  2. rhea

    rhea Well-Known Member

    Joined:
    Jan 6, 2014
    Messages:
    5,886
    Likes Received:
    447
    thanks
     
  3. Kensing

    Kensing Member

    Joined:
    Dec 27, 2013
    Messages:
    258
    Likes Received:
    0
    Thanks
     
  4. seesagun

    seesagun Member

    Joined:
    Mar 22, 2014
    Messages:
    253
    Likes Received:
    2
    Thanks
     
  5. iqson

    iqson Active Member

    Joined:
    Dec 30, 2013
    Messages:
    196
    Likes Received:
    68
    Thanks
     
  6. multimediafm

    multimediafm Well-Known Member Donor

    Joined:
    Mar 27, 2014
    Messages:
    8,865
    Likes Received:
    384
  7. getteg

    getteg Active Member

    Joined:
    Sep 24, 2014
    Messages:
    536
    Likes Received:
    30
    koool
     
  8. gstnedgrdrch93

    gstnedgrdrch93 Member

    Joined:
    Oct 12, 2014
    Messages:
    50
    Likes Received:
    1