Evanescence - My Immortal

Discussion in 'MHD' started by adam dark, Jan 16, 2014.

  1. adam dark

    adam dark Video Music Lover <3 V . I . P.

    Joined:
    Dec 5, 2013
    Messages:
    2,610
    Likes Received:
    4,930
    Evanescence - My Immortal

    [​IMG]
    [​IMG]
    [​IMG]
    [​IMG]
    [​IMG]
    [​IMG]
    [​IMG]

    Code:
    General
    ID                             : 1 (0x1)
    Complete name                  : Evanescence - My Immortal.mkv
    Format                         : MPEG-TS
    File size                      : 561 MiB
    Duration                       : 4mn 41s
    Overall bit rate mode          : Variable
    Overall bit rate               : 16.7 Mbps
    
    Video
    ID                             : 2048 (0x800)
    Menu ID                        : 1 (0x1)
    Format                         : MPEG Video
    Format version                 : Version 2
    Format profile                 : [email protected]
    Format settings, BVOP          : No
    Format settings, Matrix        : Custom
    Format settings, GOP           : M=2, N=14
    Codec ID                       : 2
    Duration                       : 4mn 41s
    Bit rate mode                  : Variable
    Bit rate                       : 15.5 Mbps
    Maximum bit rate               : 38.8 Mbps
    Width                          : 1 920 pixels
    Height                         : 1 080 pixels
    Display aspect ratio           : 16:9
    Frame rate                     : 29.970 fps
    Color space                    : YUV
    Chroma subsampling             : 4:2:0
    Bit depth                      : 8 bits
    Scan type                      : Interlaced
    Scan order                     : Bottom Field First
    Compression mode               : Lossy
    Bits/(Pixel*Frame)             : 0.249
    Time code of first frame       : 00:00:00:00
    Time code source               : Group of pictures header
    Stream size                    : 520 MiB (93%)
    
    Audio
    ID                             : 2049 (0x801)
    Menu ID                        : 1 (0x1)
    Format                         : AC-3
    Format/Info                    : Audio Coding 3
    Mode extension                 : CM (complete main)
    Format settings, Endianness    : Big
    Codec ID                       : 129
    Duration                       : 4mn 41s
    Bit rate mode                  : Constant
    Bit rate                       : 384 Kbps
    Channel count                  : 2 channels
    Channel positions              : Front: L R
    Sampling rate                  : 48.0 KHz
    Bit depth                      : 16 bits
    Compression mode               : Lossy
    Stream size                    : 12.9 MiB (2%)

    Hidden Content:
    You must either reply or click 'Like' to see the hidden information contained here.

    Credit to the original capper
     
    Last edited: Feb 9, 2016
    pancho1234, Razy, hd1026 and 23 others like this.
  2. elejido10

    elejido10 Member

    Joined:
    Oct 27, 2013
    Messages:
    193
    Likes Received:
    0
  3. airj23

    airj23 Member

    Joined:
    Apr 17, 2014
    Messages:
    108
    Likes Received:
    0
    Thanks...
     
  4. Chris

    Chris Member

    Joined:
    Oct 19, 2013
    Messages:
    677
    Likes Received:
    21
    Thank you
     
  5. Binho

    Binho Member

    Joined:
    Apr 9, 2014
    Messages:
    256
    Likes Received:
    5
    thank you
     
  6. mayday4352767

    mayday4352767 Member

    Joined:
    Apr 15, 2014
    Messages:
    31
    Likes Received:
    1
    thanks!!!
     
  7. Gabriel Teixeira Pinto

    Gabriel Teixeira Pinto Active Member

    Joined:
    Apr 16, 2014
    Messages:
    842
    Likes Received:
    159
  8. adam dark

    adam dark Video Music Lover <3 V . I . P.

    Joined:
    Dec 5, 2013
    Messages:
    2,610
    Likes Received:
    4,930
    you're welcome!
     
  9. OERB

    OERB Member

    Joined:
    Jan 30, 2014
    Messages:
    179
    Likes Received:
    11
    qwertyyyyyyyyy
     
  10. slill

    slill Active Member

    Joined:
    Jul 25, 2014
    Messages:
    1,083
    Likes Received:
    15
    thanks for sharing
     
  11. adam dark

    adam dark Video Music Lover <3 V . I . P.

    Joined:
    Dec 5, 2013
    Messages:
    2,610
    Likes Received:
    4,930
    you're welcome!
     
  12. fatane

    fatane Member

    Joined:
    Mar 4, 2014
    Messages:
    87
    Likes Received:
    3
    tnks
     
  13. adam dark

    adam dark Video Music Lover <3 V . I . P.

    Joined:
    Dec 5, 2013
    Messages:
    2,610
    Likes Received:
    4,930
    you're welcome!
     
  14. lpplus

    lpplus LP & MET Fan

    Joined:
    Sep 28, 2014
    Messages:
    812
    Likes Received:
    3,120
    Thanks
     
  15. adam dark

    adam dark Video Music Lover <3 V . I . P.

    Joined:
    Dec 5, 2013
    Messages:
    2,610
    Likes Received:
    4,930
    you're welcome!
     
  16. FlacoChileno

    FlacoChileno Member

    Joined:
    Jan 26, 2015
    Messages:
    468
    Likes Received:
    17
  17. reyouda1

    reyouda1 Member

    Joined:
    Feb 10, 2014
    Messages:
    147
    Likes Received:
    11
    omg this song is everything
     
  18. Dreamer

    Dreamer Lana Del Rey ♥ Halsey Capper V . I . P. Uploader

    Joined:
    Dec 4, 2014
    Messages:
    2,881
    Likes Received:
    4,389
    Thank you
     
  19. Ross

    Ross Active Member

    Joined:
    Oct 19, 2014
    Messages:
    323
    Likes Received:
    50
    Thank You so much
     
  20. franklele

    franklele Well-Known Member

    Joined:
    Nov 11, 2013
    Messages:
    2,164
    Likes Received:
    122
    thank you very much