WEB-RiP Evanescence - Imperfection - (1080p HD) - [VEVO MP4].

Discussion in 'VEVO' started by Matheus10, Nov 13, 2017.

  1. Matheus10

    Matheus10 Active Member

    Joined:
    Oct 2, 2017
    Messages:
    247
    Likes Received:
    159
    [​IMG]
    Code:
    General
    Format                         : MPEG-4
    Format profile                 : Base Media
    Codec ID                       : isom
    File size                      : 217 MiB
    Duration                       : 6mn 40s
    Overall bit rate               : 4 540 Kbps
    Writing application            : Lavf56.16.102
    
    Video
    ID                             : 1
    Format                         : AVC
    Format/Info                    : Advanced Video Codec
    Format profile                 : [email protected]
    Format settings, CABAC         : Yes
    Format settings, ReFrames      : 4 frames
    Codec ID                       : avc1
    Codec ID/Info                  : Advanced Video Coding
    Duration                       : 6mn 39s
    Bit rate                       : 4 420 Kbps
    Width                          : 1 920 pixels
    Height                         : 1 080 pixels
    Display aspect ratio           : 16:9
    Frame rate mode                : Constant
    Frame rate                     : 23.976 fps
    Color space                    : YUV
    Chroma subsampling             : 4:2:0
    Bit depth                      : 8 bits
    Scan type                      : Progressive
    Bits/(Pixel*Frame)             : 0.089
    Stream size                    : 210 MiB (97%)
    Writing library                : x264 core 148
    
    Audio
    ID                             : 2
    Format                         : AAC
    Format/Info                    : Advanced Audio Codec
    Format profile                 : LC
    Codec ID                       : 40
    Duration                       : 6mn 40s
    Bit rate mode                  : Constant
    Bit rate                       : 128 Kbps
    Channel(s)                     : 2 channels
    Channel positions              : Front: L R
    Sampling rate                  : 44.1 KHz
    Compression mode               : Lossy
    Stream size                    : 6.10 MiB (3%)
    
    Hidden Content:
    You must either reply or click 'Like' to see the hidden information contained here.
    Hidden Content:
    You must reply before you can see the hidden data contained here.
     
  2. Loading...


  3. maggotsaid

    maggotsaid Active Member

    Joined:
    Oct 18, 2016
    Messages:
    122
    Likes Received:
    84
    perfect
     
    Matheus10 likes this.
  4. brunolima284

    brunolima284 Member

    Joined:
    May 13, 2017
    Messages:
    276
    Likes Received:
    10
    obrigado.
     
    Matheus10 likes this.
  5. SAEED.SPEARS

    SAEED.SPEARS Member

    Joined:
    Dec 14, 2016
    Messages:
    130
    Likes Received:
    7
    thanks
     
    Matheus10 likes this.
  6. tf135

    tf135 Well-Known Member

    Joined:
    Nov 14, 2014
    Messages:
    2,498
    Likes Received:
    163
    thanks
     
    Matheus10 likes this.
  7. 122alex

    122alex New Member

    Joined:
    Sep 22, 2017
    Messages:
    10
    Likes Received:
    0
    Thanks
     
  8. Joseph17

    Joseph17 New Member

    Joined:
    Aug 1, 2014
    Messages:
    24
    Likes Received:
    0
    thnaks!!! <3