MASTER Europa (Jax Jones & Martin Solveig) - All Day and Night feat Madison Beer (Late Night Session)

Discussion in 'MASTER & MASTER RIP' started by Luisru, Jun 12, 2019.

  1. Luisru

    Luisru Member

    Joined:
    Nov 8, 2016
    Messages:
    40
    Likes Received:
    16
    [​IMG]

    Europa (Jax Jones & Martin Solveig) - All Day and Night feat Madison Beer (Late Night Session) [Master]

    General
    Complete name : C:\Users\Europa (Jax Jones & Martin Solveig) - All Day and Night with Madison Beer (Late Night Session)).mp4
    Format : MPEG-4
    Format profile : Base Media / Version 2
    Codec ID : mp42 (mp42/mp41)
    File size : 489 MiB
    Duration : 2 min 48 s
    Overall bit rate : 24.3 Mb/s
    Encoded date : UTC 2019-05-01 09:57:21
    Tagged date : UTC 2019-05-01 09:57:23

    Video
    ID : 1
    Format : AVC
    Format/Info : Advanced Video Codec
    Format profile : Baseline@L4.1
    Format settings, CABAC : No
    Format settings, RefFrames : 2 frames
    Codec ID : avc1
    Codec ID/Info : Advanced Video Coding
    Duration : 2 min 48 s
    Bit rate : 24.0 Mb/s
    Width : 1 920 pixels
    Height : 1 080 pixels
    Display aspect ratio : 16:9
    Frame rate mode : Constant
    Frame rate : 25.000 FPS
    Color space : YUV
    Chroma subsampling : 4:2:0
    Bit depth : 8 bits
    Scan type : Progressive
    Bits/(Pixel*Frame) : 0.464
    Stream size : 483 MiB (99%)
    Language : English
    Encoded date : UTC 2019-05-01 09:57:21
    Tagged date : UTC 2019-05-01 09:57:23
    Color range : Limited
    Color primaries : BT.709
    Transfer characteristics : BT.709
    Matrix coefficients : BT.709

    Audio
    ID : 2
    Format : AAC
    Format/Info : Advanced Audio Codec
    Format profile : LC
    Codec ID : 40
    Duration : 2 min 48 s
    Bit rate mode : Constant
    Bit rate : 256 kb/s
    Channel(s) : 2 channels
    Channel positions : Front: L R
    Sampling rate : 48.0 kHz
    Frame rate : 46.875 FPS (1024 SPF)
    Compression mode : Lossy
    Stream size : 5.14 MiB (1%)
    Language : English
    Encoded date : UTC 2019-05-01 09:57:21
    Tagged date : UTC 2019-05-01 09:57:23

    Hidden Content:
    You must reply before you can see the hidden data contained here.
     
    gui_eda and tf135 like this.
  2. tf135

    tf135 Well-Known Member

    Joined:
    Nov 14, 2014
    Messages:
    4,176
    Likes Received:
    225
    thanks
     
  3. BetaKsi

    BetaKsi Well-Known Member

    Joined:
    Oct 18, 2015
    Messages:
    2,814
    Likes Received:
    685
    Thank you))
     
  4. ianarturis

    ianarturis Well-Known Member

    Joined:
    Jan 6, 2018
    Messages:
    1,807
    Likes Received:
    824
    Thank you
     
  5. ecrider1000

    ecrider1000 Active Member

    Joined:
    Jun 25, 2016
    Messages:
    577
    Likes Received:
    26
  6. kalo

    kalo Active Member

    Joined:
    May 25, 2015
    Messages:
    633
    Likes Received:
    26
  7. Vinny

    Vinny Well-Known Member

    Joined:
    Dec 26, 2013
    Messages:
    4,306
    Likes Received:
    59
  8. gui_eda

    gui_eda Member

    Joined:
    Nov 10, 2018
    Messages:
    60
    Likes Received:
    0
  9. Viitrex

    Viitrex Member

    Joined:
    Mar 26, 2016
    Messages:
    573
    Likes Received:
    20