HDTV Estúdio 360 - Sepultura [11Jan2017] SONYHD 1080i HDTV DD2.0 H.264 CELOBRAZiL-HDMania

Discussion in 'Documentaries' started by CELOBRAZiL, Jan 12, 2017.

  1. CELOBRAZiL

    CELOBRAZiL Well-Known Member Capper V . I . P. Donor

    Joined:
    Oct 2, 2013
    Messages:
    2,192
    Likes Received:
    6,152
    Estúdio 360 - Sepultura [11Jan2017] SONYHD 1080i HDTV DD2.0 H.264 CELOBRAZiL-HDMania

    [​IMG]


    Format : MPEG-TS
    File size : 1.16 GiB
    Duration : 21mn 39s
    Overall bit rate mode : Variable
    Overall bit rate : 7 673 Kbps

    Video
    ID : 6160 (0x1810)
    Menu ID : 1 (0x1)
    Format : AVC
    Format/Info : Advanced Video Codec
    Format profile : [email protected]
    Format settings, CABAC : Yes
    Format settings, ReFrames : 4 frames
    Codec ID : 27
    Duration : 21mn 40s
    Bit rate : 6 906 Kbps
    Width : 1 920 pixels
    Height : 1 080 pixels
    Display aspect ratio : 16:9
    Frame rate : 29.970 fps
    Standard : Component
    Color space : YUV
    Chroma subsampling : 4:2:0
    Bit depth : 8 bits
    Scan type : MBAFF
    Scan order : Top Field First
    Bits/(Pixel*Frame) : 0.111
    Stream size : 1.05 GiB (90%)
    Color range : Limited
    Color primaries : BT.709
    Transfer characteristics : BT.709
    Matrix coefficients : BT.709

    Audio #1
    ID : 6161 (0x1811)
    Menu ID : 1 (0x1)
    Format : AC-3
    Format/Info : Audio Coding 3
    Mode extension : CM (complete main)
    Format settings, Endianness : Big
    Codec ID : 6
    Duration : 21mn 40s
    Bit rate mode : Constant
    Bit rate : 192 Kbps
    Channel(s) : 2 channels
    Channel positions : Front: L R
    Sampling rate : 48.0 KHz
    Bit depth : 16 bits
    Compression mode : Lossy
    Stream size : 29.8 MiB (3%)
    Language : English

    Audio #2
    ID : 6162 (0x1812)
    Menu ID : 1 (0x1)
    Format : AC-3
    Format/Info : Audio Coding 3
    Mode extension : CM (complete main)
    Format settings, Endianness : Big
    Codec ID : 6
    Duration : 21mn 40s
    Bit rate mode : Constant
    Bit rate : 192 Kbps
    Channel(s) : 2 channels
    Channel positions : Front: L R
    Sampling rate : 48.0 KHz
    Bit depth : 16 bits
    Compression mode : Lossy
    Stream size : 29.8 MiB (3%)
    Language : English


    Link(s):
    Hidden Content:
    You must either reply or click 'Like' to see the hidden information contained here.
     
    Tono Cajka and Bellower like this.
  2. Bellower

    Bellower Member

    Joined:
    Oct 22, 2014
    Messages:
    52
    Likes Received:
    7
    Let me be the first to give you a big THANK YOU! :)
     
    CELOBRAZiL likes this.
  3. leomet_2000

    leomet_2000 New Member

    Joined:
    Nov 14, 2014
    Messages:
    8
    Likes Received:
    1
    thanks a lot!!! THANK YOU
     
    CELOBRAZiL likes this.
  4. Bernard Panasonik

    Bernard Panasonik New Member

    Joined:
    Jan 13, 2017
    Messages:
    2
    Likes Received:
    2
    Thanks a lot!
     
    CELOBRAZiL likes this.
  5. Bernard Panasonik

    Bernard Panasonik New Member

    Joined:
    Jan 13, 2017
    Messages:
    2
    Likes Received:
    2
    Thanks a lot!
     
    CELOBRAZiL likes this.
  6. meloman67

    meloman67 Active Member

    Joined:
    Jun 8, 2014
    Messages:
    527
    Likes Received:
    35
    Thanks
     
    CELOBRAZiL likes this.