Eric Prydz - Call On Me (VIVAHD-1080i-DD2.0-Djodjara)-HDMania

Discussion in 'VIVA HD' started by Djodjara, Dec 5, 2014.

  1. revilo18

    revilo18 Well-Known Member

    Joined:
    May 26, 2016
    Messages:
    1,310
    Likes Received:
    56
    thankk
     
  2. CristianMatias

    CristianMatias Member

    Joined:
    Sep 17, 2016
    Messages:
    541
    Likes Received:
    17
  3. CristianMatias

    CristianMatias Member

    Joined:
    Sep 17, 2016
    Messages:
    541
    Likes Received:
    17
  4. rpgs

    rpgs New Member

    Joined:
    Jun 14, 2016
    Messages:
    4
    Likes Received:
    0
    thanks
     
  5. wazza

    wazza Member

    Joined:
    Nov 16, 2016
    Messages:
    40
    Likes Received:
    0
    thanks
     
  6. lastxdance

    lastxdance Member

    Joined:
    Dec 13, 2016
    Messages:
    95
    Likes Received:
    1
    Thank you!
     
  7. hanshermann

    hanshermann Active Member

    Joined:
    Aug 24, 2016
    Messages:
    1,361
    Likes Received:
    2
    wahts taht
     
  8. thegodofwar

    thegodofwar New Member

    Joined:
    Oct 16, 2016
    Messages:
    9
    Likes Received:
    0
  9. SameOldSatellite

    SameOldSatellite New Member

    Joined:
    Jan 27, 2017
    Messages:
    1
    Likes Received:
    0
    thanks
    Eric Prydz - Call On Me (VIVA HD-1080i-Djodjara)-HDMania

    [​IMG]
    [​IMG]

    General:
    ID : 95 (0x5F)
    Format : MPEG-TS
    File size : 183 MiB
    Duration : 2mn 51s
    Overall bit rate mode : Variable
    Overall bit rate : 8 959 Kbps

    Video:
    ID : 528 (0x210)
    Menu ID : 9067 (0x236B)
    Format : AVC
    Format/Info : Advanced Video Codec
    Format profile : High@L4.0
    Format settings, CABAC : Yes
    Format settings, ReFrames : 3 frames
    Codec ID : 27
    Duration : 2mn 51s
    Bit rate : 8 063 Kbps
    Width : 1 920 pixels
    Height : 1 080 pixels
    Display aspect ratio : 16:9
    Frame rate : 25.000 fps
    Standard : Component
    Color space : YUV
    Chroma subsampling : 4:2:0
    Bit depth : 8 bits
    Scan type : Interlaced
    Bits/(Pixel*Frame) : 0.156
    Stream size : 164 MiB (90%)
    Color primaries : BT.709
    Transfer characteristics : BT.709
    Matrix coefficients : BT.709

    Audio #1:
    ID : 529 (0x211)
    Menu ID : 9067 (0x236B)
    Format : MPEG Audio
    Format version : Version 1
    Format profile : Layer 2
    Codec ID : 4
    Duration : 2mn 51s
    Bit rate mode : Constant
    Bit rate : 256 Kbps
    Channel count : 2 channels
    Sampling rate : 48.0 KHz
    Compression mode : Lossy
    Delay relative to video : 91ms
    Stream size : 5.22 MiB (3%)
    Language : German

    Audio #2:
    ID : 539 (0x21B)
    Menu ID : 9067 (0x236B)
    Format : AC-3
    Format/Info : Audio Coding 3
    Mode extension : HI (hearing impaired)
    Format settings, Endianness : Big
    Codec ID : 6
    Duration : 2mn 51s
    Bit rate mode : Constant
    Bit rate : 192 Kbps
    Channel count : 2 channels
    Channel positions : Front: L R
    Sampling rate : 48.0 KHz
    Bit depth : 16 bits
    Compression mode : Lossy
    Delay relative to video : 40ms
    Stream size : 3.92 MiB (2%)
    Language : German

    ***Hidden content cannot be quoted.***
    [/QUOTE]
     
  10. bugmenot

    bugmenot Member

    Joined:
    Nov 17, 2016
    Messages:
    265
    Likes Received:
    5
    want this k