Eric Prydz - Call On Me (Deluxe Music HD-1080i-DD2.0)-Olgold

Discussion in 'DELUXE MUSIC HD' started by Olgold, Aug 26, 2015.

  1. Olgold

    Olgold Well-Known Member Capper

    Joined:
    Aug 19, 2015
    Messages:
    435
    Likes Received:
    1,501
    [​IMG]
    General
    Format : MPEG-TS
    File size : 163 MiB
    Duration : 2mn 43s
    Overall bit rate mode : Variable
    Overall bit rate : 8 325 Kbps

    Video
    Format : AVC
    Format/Info : Advanced Video Codec
    Format profile : [email protected]
    Format settings, CABAC : Yes
    Format settings, ReFrames : 4 frames
    Duration : 2mn 43s
    Bit rate : 7 526 Kbps
    Width : 1 280 pixels
    Height : 1 080 pixels
    Display aspect ratio : 16:9
    Frame rate : 25.000 fps
    Standard : Component
    Color space : YUV
    Chroma subsampling : 4:2:0
    Bit depth : 8 bits
    Scan type : Interlaced
    Scan order : Top Field First
    Bits/(Pixel*Frame) : 0.218
    Stream size : 146 MiB (90%)
    Color range : Limited

    Audio
    Format : AC-3
    Format/Info : Audio Coding 3
    Mode extension : CM (complete main)
    Format settings, Endianness : Big
    Duration : 2mn 43s
    Bit rate mode : Constant
    Bit rate : 384 Kbps
    Channel(s) : 2 channels
    Channel positions : Front: L R
    Sampling rate : 48.0 KHz
    Compression mode : Lossy
    Delay relative to video : 34ms
    Stream size : 7.50 MiB (5%)
    Language : German
    Language, more info : Clean effects

    Hidden Content:
    You must reply before you can see the hidden data contained here.
     
  2. Dreamer

    Dreamer Lana Del Rey ♥ Capper Uploader

    Joined:
    Dec 4, 2014
    Messages:
    2,507
    Likes Received:
    2,685
    Thank you
     
  3. Crusha

    Crusha Well-Known Member Capper

    Joined:
    Oct 15, 2014
    Messages:
    2,350
    Likes Received:
    2,252
    thank you
     
  4. rhea

    rhea Well-Known Member

    Joined:
    Jan 6, 2014
    Messages:
    5,665
    Likes Received:
    366
    thank you so much!
     
  5. lukierrywhere

    lukierrywhere Member

    Joined:
    May 1, 2015
    Messages:
    161
    Likes Received:
    1
  6. furkan

    furkan Member

    Joined:
    Oct 9, 2015
    Messages:
    236
    Likes Received:
    7
    thnks youuu
     
  7. PauloBruno

    PauloBruno Member

    Joined:
    Jun 12, 2014
    Messages:
    54
    Likes Received:
    0
     
  8. SMUT

    SMUT New Member

    Joined:
    Dec 22, 2015
    Messages:
    2
    Likes Received:
    0
    Спасибо большое
     
  9. nocturne111

    nocturne111 New Member

    Joined:
    Jan 3, 2016
    Messages:
    28
    Likes Received:
    0
    thanks its very nice post <3
     
  10. limonato

    limonato Member

    Joined:
    Dec 1, 2014
    Messages:
    205
    Likes Received:
    3
    thank you
     
  11. RUS22877773

    RUS22877773 Member

    Joined:
    Jan 7, 2016
    Messages:
    101
    Likes Received:
    1
    thank you
     
  12. Carro3000

    Carro3000 New Member

    Joined:
    Jan 22, 2016
    Messages:
    5
    Likes Received:
    0
  13. Christian Antichrist

    Christian Antichrist Member

    Joined:
    Jan 3, 2016
    Messages:
    217
    Likes Received:
    2
  14. Zeeh

    Zeeh Member

    Joined:
    Mar 20, 2015
    Messages:
    486
    Likes Received:
    10
    Thanks
     
  15. pajtas

    pajtas Member

    Joined:
    Feb 15, 2016
    Messages:
    31
    Likes Received:
    2
    Thanks
     
  16. mharesania

    mharesania Member

    Joined:
    Jan 23, 2016
    Messages:
    52
    Likes Received:
    0
  17. Flaxdevil

    Flaxdevil Member

    Joined:
    May 25, 2014
    Messages:
    210
    Likes Received:
    6
    Thanks!
     
  18. Pavulon

    Pavulon Well-Known Member

    Joined:
    Mar 22, 2016
    Messages:
    1,632
    Likes Received:
    97
    thanks:)
     
  19. mizdot

    mizdot Well-Known Member

    Joined:
    Nov 13, 2014
    Messages:
    1,242
    Likes Received:
    25
    tnx man
     
  20. nevha

    nevha New Member

    Joined:
    Jul 1, 2016
    Messages:
    20
    Likes Received:
    0
    thank you