Enrique Iglesias - Not In Love (feat Kelis).vob

Discussion in 'SD Live Performances' started by adam dark, Jan 16, 2014.

  1. adam dark

    adam dark Video Music Lover <3 V . I . P.

    Joined:
    Dec 5, 2013
    Messages:
    2,641
    Likes Received:
    5,476
    Enrique Iglesias - Not In Love (feat Kelis)

    [​IMG]

    General
    Complete name : Enrique Iglesias - Not In Love (feat Kelis).vob
    Format : MPEG-PS
    File size : 227 MiB
    Duration : 3mn 44s
    Overall bit rate : 8 486 Kbps
    Writing library : encoded by TMPGEnc (ver. 2.610.49.157)

    Video
    ID : 224 (0xE0)
    Format : MPEG Video
    Format version : Version 2
    Format profile : Main@Main
    Format settings, BVOP : No
    Format settings, Matrix : Custom
    Format settings, GOP : M=3, N=16
    Duration : 3mn 44s
    Bit rate : 7 992 Kbps
    Width : 720 pixels
    Height : 480 pixels
    Display aspect ratio : 4:3
    Frame rate : 29.970 fps
    Standard : NTSC
    Color space : YUV
    Chroma subsampling : 4:2:0
    Bit depth : 8 bits
    Scan type : Interlaced
    Scan order : Top Field First
    Compression mode : Lossy
    Bits/(Pixel*Frame) : 0.772
    Time code of first frame : 00:00:00:00
    Time code source : Group of pictures header
    Stream size : 213 MiB (93%)
    Writing library : TMPGEnc 2.610.49.157
    Color primaries : BT.601 PAL
    Transfer characteristics : BT.470 System B, BT.470 System G
    Matrix coefficients : FCC 73.682

    Audio
    ID : 192 (0xC0)
    Format : MPEG Audio
    Format version : Version 1
    Format profile : Layer 2
    Duration : 3mn 44s
    Bit rate mode : Constant
    Bit rate : 384 Kbps
    Channel count : 2 channels
    Sampling rate : 48.0 KHz
    Compression mode : Lossy
    Stream size : 10.3 MiB (5%)

    Hidden Content:
    You must either reply or click 'Like' to see the hidden information contained here.
    Credit to the original capper
     
    Last edited: Oct 17, 2014
  2. Loading...


  3. alex

    alex Well-Known Member

    Joined:
    Nov 21, 2013
    Messages:
    4,581
    Likes Received:
    388
    thanks dear adam :greedy:
     
  4. adam dark

    adam dark Video Music Lover <3 V . I . P.

    Joined:
    Dec 5, 2013
    Messages:
    2,641
    Likes Received:
    5,476
    you're welcome man!! :victory:
     
  5. alex

    alex Well-Known Member

    Joined:
    Nov 21, 2013
    Messages:
    4,581
    Likes Received:
    388
    :love:
     
  6. adam dark

    adam dark Video Music Lover <3 V . I . P.

    Joined:
    Dec 5, 2013
    Messages:
    2,641
    Likes Received:
    5,476
    Are you sure? Actually I can see it, and take me to the download page, refresh your browser...
     
    alex likes this.
  7. rhea

    rhea Well-Known Member

    Joined:
    Jan 6, 2014
    Messages:
    7,848
    Likes Received:
    1,002
    thanks a lot! :)
     
  8. brian182

    brian182 Well-Known Member

    Joined:
    Oct 14, 2013
    Messages:
    2,136
    Likes Received:
    121
    thanks..
     
  9. multimediafm

    multimediafm Well-Known Member Donor

    Joined:
    Mar 27, 2014
    Messages:
    12,878
    Likes Received:
    1,013
  10. adam dark

    adam dark Video Music Lover <3 V . I . P.

    Joined:
    Dec 5, 2013
    Messages:
    2,641
    Likes Received:
    5,476
  11. lpplus

    lpplus LP & MET Fan

    Joined:
    Sep 28, 2014
    Messages:
    850
    Likes Received:
    3,628
    ممنون
     
  12. quake2

    quake2 Well-Known Member

    Joined:
    Oct 11, 2014
    Messages:
    1,556
    Likes Received:
    142
    ok thx
     
  13. Snorom6

    Snorom6 Well-Known Member V . I . P. Uploader

    Joined:
    Dec 17, 2015
    Messages:
    4,248
    Likes Received:
    5,848
  14. revilo18

    revilo18 Well-Known Member

    Joined:
    May 26, 2016
    Messages:
    2,072
    Likes Received:
    102
    THANKKK
     
  15. Hossein Enr7que

    Hossein Enr7que Enriquette . ZQUAD . XO V . I . P. Uploader

    Joined:
    May 13, 2016
    Messages:
    1,341
    Likes Received:
    3,840
    gracias
     
  16. Elle

    Elle Member

    Joined:
    Mar 6, 2015
    Messages:
    115
    Likes Received:
    3
    thanks
     
  17. Romain

    Romain Member

    Joined:
    Jul 14, 2014
    Messages:
    566
    Likes Received:
    4
    thank
     
  18. Tadeulife

    Tadeulife Member

    Joined:
    Jan 21, 2016
    Messages:
    718
    Likes Received:
    20
  19. rowlinglooni

    rowlinglooni Member

    Joined:
    Mar 21, 2017
    Messages:
    320
    Likes Received:
    24
    thanksssssssssssssss
     
  20. KishanIglesias

    KishanIglesias Member

    Joined:
    Oct 30, 2017
    Messages:
    83
    Likes Received:
    2
  21. allynat

    allynat Member

    Joined:
    Dec 25, 2017
    Messages:
    664
    Likes Received:
    11
    Thank you