Enrique Iglesias - Hero (MTVIdol-1080i-DD2.0)-Olgold

Discussion in 'MTV IDOL' started by Olgold, Aug 27, 2015.

  1. Olgold

    Olgold Well-Known Member Capper

    Joined:
    Aug 19, 2015
    Messages:
    386
    Likes Received:
    1,310
    [​IMG]
    General
    Format : MPEG-TS
    File size : 167 MiB
    Duration : 4mn 21s
    Overall bit rate mode : Variable
    Overall bit rate : 5 290 Kbps

    Video
    Format : AVC
    Format/Info : Advanced Video Codec
    Format profile : [email protected]
    Format settings, CABAC : Yes
    Format settings, ReFrames : 4 frames
    Duration : 4mn 20s
    Bit rate : 4 835 Kbps
    Width : 1 920 pixels
    Height : 1 080 pixels
    Display aspect ratio : 16:9
    Frame rate : 25.000 fps
    Standard : Component
    Color space : YUV
    Chroma subsampling : 4:2:0
    Bit depth : 8 bits
    Scan type : MBAFF
    Scan order : Top Field First
    Bits/(Pixel*Frame) : 0.093
    Stream size : 150 MiB (90%)
    Encryption : Seca Mediaguard 1/2
    Color range : Limited

    Audio
    Format : AC-3
    Format/Info : Audio Coding 3
    Mode extension : CM (complete main)
    Format settings, Endianness : Big
    Duration : 4mn 22s
    Bit rate mode : Constant
    Bit rate : 192 Kbps
    Channel(s) : 2 channels
    Channel positions : Front: L R
    Sampling rate : 48.0 KHz
    Compression mode : Lossy
    Delay relative to video : -780ms
    Stream size : 6.01 MiB (4%)
    Language : French

    Hidden Content:
    You must reply before you can see the hidden data contained here.
     
    tknobi, lifevirgin, Sajad and 2 others like this.
  2. Loading...


  3. 777josem

    777josem Well-Known Member Uploader

    Joined:
    Sep 1, 2014
    Messages:
    2,424
    Likes Received:
    1,294
    :DThank you so much!
     
  4. adam136

    adam136 Member

    Joined:
    Jan 8, 2015
    Messages:
    54
    Likes Received:
    1
    Thank you:)
     
  5. Zatimi

    Zatimi Active Member

    Joined:
    Aug 27, 2014
    Messages:
    598
    Likes Received:
    61
    thanks a million
     
  6. Dreamer

    Dreamer ♫ It's Britney Bitch ♫ Capper Uploader

    Joined:
    Dec 4, 2014
    Messages:
    2,216
    Likes Received:
    1,932
    Thank you
     
  7. Josue Carminatti

    Josue Carminatti Member

    Joined:
    Jul 19, 2015
    Messages:
    266
    Likes Received:
    6
  8. rhea

    rhea Well-Known Member

    Joined:
    Jan 6, 2014
    Messages:
    5,266
    Likes Received:
    253
    thank you so much
     
  9. MaggieS

    MaggieS Active Member

    Joined:
    Sep 19, 2014
    Messages:
    925
    Likes Received:
    34
    tnx u
     
  10. Sajad

    Sajad Active Member

    Joined:
    Jan 31, 2015
    Messages:
    116
    Likes Received:
    61
    Tnx a lot
     
  11. sebasswift

    sebasswift Member

    Joined:
    Oct 26, 2015
    Messages:
    117
    Likes Received:
    4
    OK THANKS
     
  12. nolynexor88

    nolynexor88 Active Member

    Joined:
    Sep 29, 2015
    Messages:
    826
    Likes Received:
    26
     
  13. alberto piper naro

    alberto piper naro Member

    Joined:
    Jul 4, 2015
    Messages:
    401
    Likes Received:
    13
    gracias thanks
     
  14. STONECOLD2020

    STONECOLD2020 Member

    Joined:
    Nov 6, 2015
    Messages:
    192
    Likes Received:
    12
    Thank you so much
     
  15. J_Pablo

    J_Pablo Active Member

    Joined:
    Nov 27, 2013
    Messages:
    430
    Likes Received:
    62
    Thank you so much!
     
  16. Flaxdevil

    Flaxdevil Member

    Joined:
    May 25, 2014
    Messages:
    206
    Likes Received:
    6
    Thanks!
     
  17. sori

    sori Member

    Joined:
    Oct 22, 2013
    Messages:
    106
    Likes Received:
    0
    thank you
     
  18. lifevirgin

    lifevirgin Active Member

    Joined:
    Feb 15, 2014
    Messages:
    362
    Likes Received:
    31
    Thank you
     
  19. Dima24684

    Dima24684 Member

    Joined:
    Dec 20, 2015
    Messages:
    97
    Likes Received:
    3
    thanks
     
  20. Snorom6

    Snorom6 Well-Known Member Uploader

    Joined:
    Dec 17, 2015
    Messages:
    4,246
    Likes Received:
    3,538
  21. spicyem

    spicyem Member

    Joined:
    Dec 17, 2015
    Messages:
    90
    Likes Received:
    0
    thanks