Enrique Iglesias - Heart Attack (M3HD-1080i-DD5.1-AmazonBoy) [CC]

Discussion in 'M3 HD' started by rgf72k, Dec 19, 2013.

  1. rgf72k

    rgf72k Founder Staff Member AdMiN

    Joined:
    Oct 1, 2013
    Messages:
    1,020
    Likes Received:
    15,109
    [​IMG]

    Code:
    General
    ID                                      : 1 (0x1)
    Complete name                            : Enrique Eglesias - Heart Attack (M3HD-1080i-AmazonBoy).ts
    Format                                  : MPEG-TS
    File size                                : 366 MiB
    Duration                                : 3mn 39s
    Overall bit rate mode                    : Variable
    Overall bit rate                        : 14.0 Mbps
    Law rating                              : E
    
    Video
    ID                                      : 1201 (0x4B1)
    Menu ID                                  : 1 (0x1)
    Format                                  : MPEG Video
    Format version                          : Version 2
    Format profile                          : [email protected]
    Format settings, BVOP                    : Yes
    Format settings, Matrix                  : Custom
    Format settings, GOP                    : Variable
    Codec ID                                : 2
    Duration                                : 3mn 38s
    Bit rate mode                            : Variable
    Bit rate                                : 12.9 Mbps
    Maximum bit rate                        : 24.0 Mbps
    Width                                    : 1 920 pixels
    Height                                  : 1 080 pixels
    Display aspect ratio                    : 16:9
    Frame rate                              : 29.970 fps
    Color space                              : YUV
    Chroma subsampling                      : 4:2:0
    Bit depth                                : 8 bits
    Compression mode                        : Lossy
    Bits/(Pixel*Frame)                      : 0.208
    Time code of first frame                : 00:00:00;00
    Time code source                        : Group of pictures header
    Stream size                              : 338 MiB (92%)
    Writing library                          : (c) 1998-2012 Womble Multimedia, Inc. / MPEG Video Wizard DVD 5.0.1.100 (03/2011) / Sep 22 2012
    
    Audio
    ID                                      : 1202 (0x4B2)
    Menu ID                                  : 1 (0x1)
    Format                                  : AC-3
    Format/Info                              : Audio Coding 3
    Mode extension                          : CM (complete main)
    Format settings, Endianness              : Big
    Codec ID                                : 129
    Duration                                : 3mn 38s
    Bit rate mode                            : Constant
    Bit rate                                : 384 Kbps
    Channel(s)                              : 6 channels
    Channel positions                        : Front: L C R, Side: L R, LFE
    Sampling rate                            : 48.0 KHz
    Bit depth                                : 16 bits
    Compression mode                        : Lossy
    Stream size                              : 10.0 MiB (3%)
    Language                                : English
    
    Text
    ID                                      : 1201 (0x4B1)-1
    Menu ID                                  : 1 (0x1)
    Format                                  : EIA-708
    Muxing mode                              : A/53 / DTVCC Transport
    Muxing mode, more info                  : Muxed in Video #1
    Duration                                : 3mn 38s
    Bit rate mode                            : Constant
    Stream size                              : 0.00 Byte (0%)


    Download:
    Hidden Content:
    You must either reply or click 'Like' to see the hidden information contained here.


    Capper: AmazonBoy
     
    arasu123, cero, MCTR and 7 others like this.
  2. curg

    curg Active Member

    Joined:
    Dec 6, 2013
    Messages:
    823
    Likes Received:
    31
    thanks
     
  3. Hen2302

    Hen2302 Member

    Joined:
    Feb 4, 2014
    Messages:
    394
    Likes Received:
    7
    thanks
     
  4. TK22

    TK22 Member

    Joined:
    Dec 27, 2013
    Messages:
    89
    Likes Received:
    2
    Thanks
     
  5. Chayan123

    Chayan123 Member

    Joined:
    Feb 13, 2014
    Messages:
    48
    Likes Received:
    0
  6. SpyrosMonster

    SpyrosMonster Active Member

    Joined:
    Jan 27, 2014
    Messages:
    697
    Likes Received:
    120
    thanks
     
  7. Dancer86

    Dancer86 New Member

    Joined:
    Mar 22, 2014
    Messages:
    4
    Likes Received:
    0
  8. dabest

    dabest Member

    Joined:
    Feb 24, 2014
    Messages:
    115
    Likes Received:
    6
    Thank you
     
  9. rashka

    rashka Member

    Joined:
    Apr 8, 2014
    Messages:
    206
    Likes Received:
    7
    thanks
     
  10. leiduancanhong

    leiduancanhong Member

    Joined:
    Jun 14, 2014
    Messages:
    112
    Likes Received:
    0
  11. andrespier

    andrespier Member

    Joined:
    Nov 30, 2013
    Messages:
    31
    Likes Received:
    0
  12. pablo palormo

    pablo palormo Member

    Joined:
    Oct 27, 2013
    Messages:
    177
    Likes Received:
    2
  13. nolynexor88

    nolynexor88 Well-Known Member

    Joined:
    Sep 29, 2015
    Messages:
    1,053
    Likes Received:
    55
     
  14. MCTR

    MCTR Active Member

    Joined:
    Feb 23, 2014
    Messages:
    293
    Likes Received:
    35
    Reloads :)